Loading...
Error

Астерикс и Обеликс в Британии / Asterix et Obelix: Au service de Sa Majeste (Лоран Тирар) [2012 г., Комедия, Приключения, Семейный, HDRip-AVC] Dub

Статистика раздачи
Размер:  2,18 GB   |    Зарегистрирован:  3 года 9 месяцев   |    Скачан:  39 раз

Полного источника не было: 5 дней

Сидов:  0  |  0 KB/s  ]   Личеров:  0  |  0 KB/s  ]

* - сиды/пиры с внешних источников

   
 
Автор Сообщение

Чертёнок Пол:Муж

17-Фев-2013 21:06

Астерикс и Обеликс в Британии / Asterix et Obelix: Au service de Sa Majeste


Год выпуска: 2012
Жанр: Комедия, Приключения, Семейный
Страна: Испания , Венгрия , Испания , Франция
Режиссер: Лоран Тирар
В ролях: Жерар Депардье, Эдуард Баэр, Гийом Гальенн, Венсан Лакост, Валери Лемерсье, Фабрис Лукини, Катрин Денёв, Шарлотта Лебон, Боли Ланнерс, Дэни Бун
Сюжет фильма:
Пятидесятый год до нашей эры. Юлий Цезарь рвется к новым завоеваниям. Во главе своих прославленных легионов он собирается захватить остров, который находится на самом краю света — таинственную страну, именуемую Британией.Войско Цезаря одерживает быструю и безоговорочную победу. Ну… почти безоговорочную: одна крошечная деревушка продолжает яростно обороняться, однако силы на исходе, и королева бриттов Корделия отправляет своего самого надежного офицера Красовакса за подмогой в Галлию, где находится такая же маленькая деревушка, известная своим упорным сопротивлением римлянам.Между тем, у Астерикса с Обеликсом и так забот хватает. Вождь поручил им сделать настоящего мужчину из Гадорикса, своего надоедливого племянника, недавно приехавшего из Лютеции, а выполнить это крайне непросто. Когда к галлам приезжает Красовакс, те снабжают его бочонком своего знаменитого волшебного зелья, а Астерикс и Обеликс отправляются вместе с ним в Британию. Гадорикса они тоже берут с собой, ведь путешествие — отличный способ пополнить образование молодого человека.

Качество видео: HDRip-AVC

Продолжительность: 01:50:15
Формат: MKV
Видео: MPEG-4 AVC, 1056x440, 2376kbps
Аудио: русский, дублированный [лицензия], AC3 5.1, 448kbps
Субтитры: тип: внешние, английский, формат: SRT

Код:

Общее
Уникальный идентификатор : 181030276793860045981969939581082970079 (0x883129C0625D4DC188CBE21E105EA7DF)
Полное имя :Asteriks.i.Obeliks.v.Britanii.2012.D.x264.HDRip-MysTeRy.mkv
Формат : Matroska
Версия формата : Version 4 / Version 2
Размер файла : 2,18 Гбайт
Продолжительность : 1 ч. 50 м.
Общий поток : 2825 Кбит/сек
Название фильма : Asteriks.i.Obeliks.v.Britanii.2012.D.x264.HDRip-MysTeRy
Дата кодирования : UTC 2013-02-17 16:44:04
Программа кодирования : mkvmerge v6.0.0 ('Coming Up For Air') built on Jan 20 2013 09:52:00
Библиотека кодирования : libebml v1.3.0 + libmatroska v1.4.0

Видео
Идентификатор : 1
Формат : AVC
Формат/Информация : Advanced Video Codec
Профиль формата : High@L4.1
Параметр CABAC формата : Да
Параметр ReFrames формата : 11 кадров
Идентификатор кодека : V_MPEG4/ISO/AVC
Продолжительность : 1 ч. 50 м.
Битрейт : 2379 Кбит/сек
Ширина : 1056 пикселей
Высота : 440 пикселей
Соотношение сторон : 2,40:1
Частота кадров : 23,976 кадра/сек
Цветовое пространство : YUV
Субдискретизация насыщенности : 4:2:0
Битовая глубина : 8 бит
Тип развёртки : Прогрессивная
Бит/(Пиксели*Кадры) : 0.214
Размер потока : 1,79 Гбайт (82%)
Библиотека кодирования : x264 core 129 r2245 bc13772
Настройки программы : cabac=1 / ref=11 / deblock=1:-2:-1 / analyse=0x3:0x133 / me=umh / subme=7 / psy=1 / psy_rd=1.00:0.10 / mixed_ref=1 / me_range=16 / chroma_me=1 / trellis=2 / 8x8dct=1 / cqm=0 / deadzone=21,11 / fast_pskip=0 / chroma_qp_offset=-3 / threads=12 / lookahead_threads=2 / sliced_threads=0 / nr=0 / decimate=0 / interlaced=0 / bluray_compat=0 / constrained_intra=0 / bframes=7 / b_pyramid=2 / b_adapt=2 / b_bias=0 / direct=3 / weightb=1 / open_gop=0 / weightp=2 / keyint=250 / keyint_min=23 / scenecut=40 / intra_refresh=0 / rc=2pass / mbtree=0 / bitrate=2379 / ratetol=1.0 / qcomp=0.70 / qpmin=0 / qpmax=69 / qpstep=4 / cplxblur=20.0 / qblur=0.5 / ip_ratio=1.40 / pb_ratio=1.30 / aq=1:0.80
Язык : French
Default : Да
Forced : Нет

Аудио
Идентификатор : 2
Формат : AC-3
Формат/Информация : Audio Coding 3
Расширение режима : CM (complete main)
Идентификатор кодека : A_AC3
Продолжительность : 1 ч. 50 м.
Вид битрейта : Постоянный
Битрейт : 448 Кбит/сек
Каналы : 6 каналов
Расположение каналов : Front: L C R, Side: L R, LFE
Частота : 48,0 КГц
Битовая глубина : 16 бит
Метод сжатия : С потерями
Размер потока : 353 Мбайт (16%)
Заголовок : Dub
Язык : Russian
Default : Да
Forced : Нет

Текст
Идентификатор : 3
Формат : UTF-8
Идентификатор кодека : S_TEXT/UTF8
Идентификатор кодека/Информация : UTF-8 Plain Text
Язык : English
Default : Нет
Forced : Нет
Семпл: http://multi-up.com/832435

picpicpicpicpicpic
Для увеличения картинки щелкните мышкой по превью


Этот торрент недоступен для скачивания без регистрации, однако доступен по публичной magnet-ссылке (источники с публичных трекеров). Перед использованием ссылки прочтите, пожалуйста Пользовательское соглашение, а также как можно дольше оставайтесь на раздаче! Для того, чтобы скачать сам торрент-файл (который видит больше источников), а также для того, чтобы поблагодарить релизера, вам необходимо зарегистрироваться. Если регистрироваться лень - вы можете также попробовать скачать релиз по нашим партнерским ссылкам ниже.

[underverse.su].t24297.torrent
Трекер: Зарегистрирован   [ 17.02.2013 21:06 ]  

Статус: проверено (by Чертёнок at 17.02.2013 21:07)
Поблагодарили: пока никто не поблагодарил...
Тип торрента: публичный - доступные источники с открытых трекеров: 
Размер: 2,18 GB (занимает 1/2 DVDR, для записи нужно 1 болванка DVDR/RW)
 
 
Похожие темы
Форум Тема Автор Торрент Отв. Посл. сооб.
Зарубежное кино [DVDRip, Low-Res HDRip, и т.д.] Астерикс и Обеликс в Британии / Asterix et Obelix: Au service de Sa Majeste (Лоран Тирар) [2012 г., Комедия, приключения, семейный, HDRip] Dub 90ytr90
24 | 2

0 | 1565

137

17.02.2013 07:42

Зарубежное кино [DVDRip, Low-Res HDRip, и т.д.] Астерикс и Обеликс в Британии / Asterix et Obelix: Au service de Sa Majeste (Лоран Тирар) [2012 г., Комедия, приключения, семейный, HDRip] Dub + Fre 90ytr90
14 | 0

1 | 742

89

22.02.2013 14:22

Зарубежное кино [HDDVDRip / BDRip / WEB-DL / HDTV 1080/720р] Астерикс и Обеликс в Британии / Asterix et Obelix: Au service de Sa Majeste (Лоран Тирар) [2012 г., комедия, приключения, семейный, BDRip 1080p] Dub + Original МИТЯ
1 | 0

0 | 684

33

17.02.2013 16:06

Зарубежное кино [HDDVDRip / BDRip / WEB-DL / HDTV 1080/720р] Астерикс и Обеликс в Британии в 3D / Asterix et Obelix: Au service de Sa Majeste 3D (Лоран Тирар) [2012 г., комедия, приключения, семейный, BDRip 1080p] Dub Anaglyph (Дюбуа) slaventi-69
0 | 0

0 | 1047

5

29.05.2013 10:51

* Архив Астерикс и викинги / Asté rix et les Vikings (Стефан Фьелдмарк, Джеспер Мюллер) [2006 г., комедия, приключения, семейный, мультфильм, BDRip] NMZ

1 | 924

30.08.2010 00:06


Яндекс.Метрика powered by Sphinx


В Н И М А Н И Е
Сайт не распространяет и не хранит электронные версии произведений, а лишь бесплатно и без коммерческой выгоды (не требуя взамен платы,
SMS и т.д.) предоставляет доступ к создаваемому пользователями каталогу ссылок на торрент-файлы, которые содержат только списки хеш-сумм.
Убедительная просьба с жалобами обращаться напрямую к пользователю, разместившему торрент файл.

Вверх