Loading...
Error

Мертвая тишина / Dead Silence (Джеймс Ван) [2007 г., ужасы, триллер, детектив, HDRip] MVO

Статистика раздачи
Размер:  1,46 GB   |    Зарегистрирован:  3 года 9 месяцев   |    Скачан:  12 раз

Полного источника не было: 3 года 5 месяцев

Сидов:  0  |  0 KB/s  ]   Личеров:  0  |  0 KB/s  ]

* - сиды/пиры с внешних источников

   
 
Автор Сообщение

ryzhkovroman Пол:Муж

17-Фев-2013 10:34

Мертвая тишина / Dead Silence
Год выпуска: 2007
Жанр: ужасы, триллер, детектив
Страна: США
Режиссер: Джеймс Ван
В ролях: Райан Квантен, Эмбер Валлетта, Донни Уолберг, Майкл Фэйрмэн, Джоан Хини, Боб Гантон, Лаура Риган, Дмитрий Чеповецкий, Джудит Анна Робертс, Кейр Гилкрист
Сюжет фильма:
Молодая пара, Джемми и Лиза, решили начать новую жизнь в маленьком городке вдали от суеты огромных мегаполисов. Только поселившись в этой заброшенной, запустелой точке на карте, они уже устали слушать сказки о наводняющих дома призраках и всей породы нечисти, обитающей повсюду. Когда неожиданно Лиза подвергается бесчеловечному убийству, Джемми, будучи главным подозреваемым в преступлении, решает провести независимое расследование относительно её загадочной смерти.

Погружаясь в то, что он ещё недавно считал сказками, парень узнает легенду о некой Мэри, дух которой, по словам местных жителей, всё ещё бродит по пустынным улицам города. Всецело отдавшись исследованию прошлого этого места, он вскоре натыкается на самые кровеобильные подробности и навлекает на себя проклятие, которое и стало причиной смерти его супруги.

  • Мировая премьера: 16 марта 2007

Качество видео: HDRip

Продолжительность: 01:31:26
Формат: AVI
Видео: XviD, 720х304, 1821 kbps
Аудио: русский, многоголосый закадровый [профессиональный], AC3 5.1, 448kbps

Код:

[b]Продолжительность: [/b]01:31:26
[b]Формат: [/b]avi
[b]Видео: [/b] XviD, 720x304, 1821 kbps
[b]Аудио: [/b]русский, многоголосый закадровый [color=darkblue][профессиональный][/color], AC3 5.1, 448 kbps
[spoiler="[b]MediaInfo[/b]"][code]General
Complete name                    : D:\Фильмы\Mertvaya.Tishina.avi
Format                           : AVI
Format/Info                      : Audio Video Interleave
File size                        : 1.46 GiB
Duration                         : 1h 31mn
Overall bit rate                 : 2 279 Kbps
Movie name                       : Мертвая Тишина
Director                         : ReaLM
Genre                            : Horror
Writing application              : VirtualDubMod 1.5.10.2 (build 2540/release)
Original source form/Name        : Movie
Copyright                        : HQ-ViDEO

Video
ID                               : 0
Format                           : MPEG-4 Visual
Format profile                   : Streaming Video@L1
Format settings, BVOP            : Yes
Format settings, QPel            : No
Format settings, GMC             : No warppoints
Format settings, Matrix          : Default (MPEG)
Codec ID                         : XVID
Codec ID/Hint                    : XviD
Duration                         : 1h 31mn
Bit rate                         : 1 821 Kbps
Width                            : 720 pixels
Height                           : 304 pixels
Display aspect ratio             : 2.35
Frame rate                       : 23.976 fps
Resolution                       : 24 bits
Colorimetry                      : 4:2:0
Scan type                        : Progressive
Bits/(Pixel*Frame)               : 0.347
Stream size                      : 1.16 GiB (80%)
Writing library                  : XviD 1.1.2 (UTC 2006-11-01)

Audio
ID                               : 1
Format                           : AC-3
Format/Info                      : Audio Coding 3
Codec ID                         : 2000
Duration                         : 1h 31mn
Bit rate mode                    : Constant
Bit rate                         : 448 Kbps
Channel(s)                       : 6 channels
Channel positions                : Front: L C R, Surround: L R, LFE
Sampling rate                    : 48.0 KHz
Stream size                      : 293 MiB (20%)
Alignment                        : Split accross interleaves
Interleave, duration             : 42 ms (1.00 video frame)
Interleave, preload duration     : 500 ms

[/code][/spoiler]
picpicpic
Для увеличения картинки щелкните мышкой по превью

Этот торрент недоступен для скачивания без регистрации, однако доступен по публичной magnet-ссылке (источники с публичных трекеров). Перед использованием ссылки прочтите, пожалуйста Пользовательское соглашение, а также как можно дольше оставайтесь на раздаче! Для того, чтобы скачать сам торрент-файл (который видит больше источников), а также для того, чтобы поблагодарить релизера, вам необходимо зарегистрироваться. Если регистрироваться лень - вы можете также попробовать скачать релиз по нашим партнерским ссылкам ниже.

[underverse.su].t24282.torrent
Трекер: Зарегистрирован   [ 17.02.2013 10:34 ]  

Статус: проверено (by Чертёнок at 17.02.2013 14:31)
Поблагодарили: пока никто не поблагодарил...
Тип торрента: публичный - доступные источники с открытых трекеров: 
Размер: 1,46 GB (занимает 1/3 DVDR, для записи нужно 1 болванка DVDR/RW)
 
 

Яндекс.Метрика powered by Sphinx


В Н И М А Н И Е
Сайт не распространяет и не хранит электронные версии произведений, а лишь бесплатно и без коммерческой выгоды (не требуя взамен платы,
SMS и т.д.) предоставляет доступ к создаваемому пользователями каталогу ссылок на торрент-файлы, которые содержат только списки хеш-сумм.
Убедительная просьба с жалобами обращаться напрямую к пользователю, разместившему торрент файл.

Вверх