Loading...
Error

Евротур / EuroTrip (Джефф Шеффер, Алек Берг, Дэвид Мэндел) [2004 г., комедия, приключения, HDTVRip-AVC] Dub + MVO + DVO + Original

Статистика раздачи
Размер:  2,18 GB   |    Зарегистрирован:  3 года 9 месяцев   |    Скачан:  8 раз

Полного источника не было: 3 месяца 16 дней

Сидов:  0  |  0 KB/s  ]   Личеров:  0  |  0 KB/s  ]

* - сиды/пиры с внешних источников

   
 
Автор Сообщение

garry Пол:Муж

16-Фев-2013 20:10

Евротур / EuroTrip


Год выпуска: 2004
Жанр: комедия, приключения
Страна: США
Режиссер: Джефф Шеффер, Алек Берг, Дэвид Мэндел
В ролях: Скотт Мехловиц, Джекоб Питтс, Мишель Трахтенберг, Трэвис Уэстер, Джессика Бёрс, Кристин Кройк, Кэти Мейлс, Ниел Исхаков, Мэтт Дэймон, Винни Джонс
Сюжет фильма:
Скотт Томас завел себе друга по переписке из Германии из самых практичных соображений. Он хотел получить отличную оценку по немецкому, а некто с именем Мик согласился перевести его домашние работы. Но вскоре выяснилось, что Мик — обворожительная блондинка, которая не прочь увидеть своего американского друга вживую.

После выпускных экзаменов Скотт прихватывает нескольких близких друзей и летит в Европу. Впереди его ждет увлекательное, хоть и беспокойное путешествие из Лондона в Берлин через Париж и Амстердам…

  • Мировая премьера: 20 февраля 2004
  • Российская премьера: 26 августа 2004, «Централ Партнершип»

/
Качество видео: HDTVRip-AVC

Продолжительность: 01:31:45
Формат: MKV
Видео: x264, 720x400, 1862 kbps
Аудио #1: русский, дублированный (со вставками многоголосого на расширенные места), AC3 5.1, 384 kbps
Аудио #2: русский, многоголосый закадровый [профессиональный, Мега Видео], AC3 5.1, 384 kbps
Аудио #3: русский, двухголосый закадровый [профессиональный, DVDXpert], AC3 5.1, 384 kbps
Аудио #4: английский, оригинал, AC3 5.1, 384 kbps
Субтитры #1: тип: внешние, русский, формат: SRT
Субтитры #2: тип: внешние, английский, формат: SRT

Код:

General
 Complete name : C:\Users\Sirius\Downloads\Eurotrip.Unrated.2004.HDTVRip\Eurotrip.Unrated.2004.HDTVRip.avi
 Format : AVI
 Format/Info : Audio Video Interleave
 Format profile : OpenDML
 File size : 2.18 GiB
 Duration : 1h 31mn
 Overall bit rate : 3 405 Kbps
 Movie name : Eurotrip.Unrated.2004.HDTVRip
 Director : St-ig ©
 Writing application : VirtualDubMod 1.5.10.2 (build 2540/release)

Video
 ID : 0
 Format : MPEG-4 Visual
 Format profile : Advanced Simple@L5
 Format settings, BVOP : 1
 Format settings, QPel : No
 Format settings, GMC : No warppoints
 Format settings, Matrix : Custom
 Codec ID : XVID
 Codec ID/Hint : XviD
 Duration : 1h 31mn
 Bit rate : 1 840 Kbps
 Width : 720 pixels
 Height : 400 pixels
 Display aspect ratio : 16:9
 Frame rate : 23.976 fps
 Color space : YUV
 Chroma subsampling : 4:2:0
 Bit depth : 8 bits
 Scan type : Progressive
 Compression mode : Lossy
 Bits/(Pixel*Frame) : 0.266
 Stream size : 1.18 GiB (54%)
 Writing library : XviD 1.2.1 (UTC 2008-12-04)

Audio #1
 ID : 1
 Format : AC-3
 Format/Info : Audio Coding 3
 Mode extension : CM (complete main)
 Codec ID : 2000
 Duration : 1h 31mn
 Bit rate mode : Constant
 Bit rate : 384 Kbps
 Channel(s) : 6 channels
 Channel positions : Front: L C R, Side: L R, LFE
 Sampling rate : 48.0 KHz
 Bit depth : 16 bits
 Compression mode : Lossy
 Stream size : 252 MiB (11%)
 Alignment : Split accross interleaves
 Interleave, duration : 42 ms (1.00 video frame)
 Interleave, preload duration : 500 ms

Audio #2
 ID : 2
 Format : AC-3
 Format/Info : Audio Coding 3
 Mode extension : CM (complete main)
 Codec ID : 2000
 Duration : 1h 31mn
 Bit rate mode : Constant
 Bit rate : 384 Kbps
 Channel(s) : 6 channels
 Channel positions : Front: L C R, Side: L R, LFE
 Sampling rate : 48.0 KHz
 Bit depth : 16 bits
 Compression mode : Lossy
 Stream size : 252 MiB (11%)
 Alignment : Split accross interleaves
 Interleave, duration : 42 ms (1.00 video frame)
 Interleave, preload duration : 500 ms

Audio #3
 ID : 3
 Format : AC-3
 Format/Info : Audio Coding 3
 Mode extension : CM (complete main)
 Codec ID : 2000
 Duration : 1h 31mn
 Bit rate mode : Constant
 Bit rate : 384 Kbps
 Channel(s) : 6 channels
 Channel positions : Front: L C R, Side: L R, LFE
 Sampling rate : 48.0 KHz
 Bit depth : 16 bits
 Compression mode : Lossy
 Stream size : 252 MiB (11%)
 Alignment : Split accross interleaves
 Interleave, duration : 42 ms (1.00 video frame)
 Interleave, preload duration : 500 ms

Audio #4
 ID : 4
 Format : AC-3
 Format/Info : Audio Coding 3
 Mode extension : CM (complete main)
 Codec ID : 2000
 Duration : 1h 31mn
 Bit rate mode : Constant
 Bit rate : 384 Kbps
 Channel(s) : 6 channels
 Channel positions : Front: L C R, Side: L R, LFE
 Sampling rate : 48.0 KHz
 Bit depth : 16 bits
 Compression mode : Lossy
 Stream size : 252 MiB (11%)
 Alignment : Split accross interleaves
 Interleave, duration : 42 ms (1.00 video frame)
 Interleave, preload duration : 500 ms
Семпл: http://multi-up.com/637854

picpicpic
Для увеличения картинки щелкните мышкой по превью

Этот торрент недоступен для скачивания без регистрации, однако доступен по публичной magnet-ссылке (источники с публичных трекеров). Перед использованием ссылки прочтите, пожалуйста Пользовательское соглашение, а также как можно дольше оставайтесь на раздаче! Для того, чтобы скачать сам торрент-файл (который видит больше источников), а также для того, чтобы поблагодарить релизера, вам необходимо зарегистрироваться. Если регистрироваться лень - вы можете также попробовать скачать релиз по нашим партнерским ссылкам ниже.

[underverse.su].t24254.torrent
Трекер: Зарегистрирован   [ 16.02.2013 20:10 ]  

Статус: проверено (by garry at 16.02.2013 20:10)
Поблагодарили: пока никто не поблагодарил...
Тип торрента: публичный - доступные источники с открытых трекеров: 
Размер: 2,18 GB (занимает 1/2 DVDR, для записи нужно 1 болванка DVDR/RW)
 
 
Похожие темы
Форум Тема Автор Торрент Отв. Посл. сооб.
Зарубежное кино [DVDRip, Low-Res HDRip, и т.д.] Евротур / EuroTrip (Джефф Шеффер / Jeff Schaffer, Алек Берг / Alec Berg, Дэвид Мэндел / David Mandel) [2004 г., комедия, приключения, BDRip] Dub 90ytr90
45 | 1

0 | 1830

18

11.12.2013 15:14


Яндекс.Метрика powered by Sphinx


В Н И М А Н И Е
Сайт не распространяет и не хранит электронные версии произведений, а лишь бесплатно и без коммерческой выгоды (не требуя взамен платы,
SMS и т.д.) предоставляет доступ к создаваемому пользователями каталогу ссылок на торрент-файлы, которые содержат только списки хеш-сумм.
Убедительная просьба с жалобами обращаться напрямую к пользователю, разместившему торрент файл.

Вверх