Loading...
Error

Неоспоримый 3 (Айзек Флорентайн) [2010 г., боевик, драма, криминал, HDRip] MVO

Статистика раздачи
Размер:  748 MB   |    Зарегистрирован:  3 года 9 месяцев   |    Скачан:  1 раз

Полного источника не было: 3 года 7 месяцев

Сидов:  0  |  0 KB/s  ]   Личеров:  0  |  0 KB/s  ]

* - сиды/пиры с внешних источников

   
 
Автор Сообщение

ryzhkovroman Пол:Муж

16-Фев-2013 15:21

Неоспоримый 3


Год выпуска: 2010
Жанр: боевик, драма, криминал
Страна: США
Режиссер: Айзек Флорентайн
В ролях: Скотт Эдкинс, Майкл Шеннон Дженкинс, Марк Иванир, Христо Шопов, Марко Зарор, Майкл Бэрал, Илрам Чои, Роберт Костанцо, Латиф Кроудер, Эстебан Куето
Сюжет фильма:
Юрий Бойка — российский чемпион подпольных боев без правил, постепенно оправляющийся от полученной в последнем поединке травмы, решает вернуться на ринг. Победив в бою нынешнего чемпиона тюрьмы «Чёрные Холмы», его босс — Гага — решает отправить его на международный чемпионат тюремных поединков. Поврежденное колено дает о себе знать в каждом бою и беспокоит Бойку, но он готов пройти до конца, чтобы сразиться с колумбийским бойцом и доказать, что он неоспоримый.
Качество видео: HDRip

Продолжительность: 01:36:02
Формат: AVI
Видео: XviD, 688х384, 951 kbps
Аудио: русский, многоголосый закадровый [профессиональный], MP3 2.0, 128 kbps

Код:

General
Complete name                    : D:\Фильмы\Не оспоримый 3.avi
Format                           : AVI
Format/Info                      : Audio Video Interleave
File size                        : 748 MiB
Duration                         : 1h 36mn
Overall bit rate                 : 1 089 Kbps
Writing application              : VirtualDubMod 1.5.10.2 (build 2540/release)
Writing library                  : VirtualDubMod build 2540/release

Video
ID                               : 0
Format                           : MPEG-4 Visual
Format profile                   : Streaming Video@L1
Format settings, BVOP            : Yes
Format settings, QPel            : No
Format settings, GMC             : No warppoints
Format settings, Matrix          : Default (MPEG)
Codec ID                         : XVID
Codec ID/Hint                    : XviD
Duration                         : 1h 36mn
Bit rate                         : 952 Kbps
Width                            : 688 pixels
Height                           : 384 pixels
Display aspect ratio             : 16/9
Frame rate                       : 23.976 fps
Resolution                       : 24 bits
Colorimetry                      : 4:2:0
Scan type                        : Progressive
Bits/(Pixel*Frame)               : 0.150
Stream size                      : 654 MiB (87%)
Writing library                  : XviD 1.2.0.dev47 (UTC 2006-11-01)

Audio
ID                               : 1
Format                           : MPEG Audio
Format version                   : Version 1
Format profile                   : Layer 3
Codec ID                         : 55
Codec ID/Hint                    : MP3
Duration                         : 1h 36mn
Bit rate mode                    : Constant
Bit rate                         : 128 Kbps
Channel(s)                       : 2 channels
Sampling rate                    : 48.0 KHz
Resolution                       : 16 bits
Stream size                      : 87.9 MiB (12%)
Alignment                        : Aligned on interleaves
Interleave, duration             : 42 ms (1.00 video frame)
Interleave, preload duration     : 504 ms

pic pic pic
Для увеличения картинки щелкните мышкой по превью

Этот торрент недоступен для скачивания без регистрации, однако доступен по публичной magnet-ссылке (источники с публичных трекеров). Перед использованием ссылки прочтите, пожалуйста Пользовательское соглашение, а также как можно дольше оставайтесь на раздаче! Для того, чтобы скачать сам торрент-файл (который видит больше источников), а также для того, чтобы поблагодарить релизера, вам необходимо зарегистрироваться. Если регистрироваться лень - вы можете также попробовать скачать релиз по нашим партнерским ссылкам ниже.

[underverse.su].t24242.torrent
Трекер: Зарегистрирован   [ 16.02.2013 15:21 ]  

Статус: проверено (by Чертёнок at 16.02.2013 16:30)
Поблагодарили: пока никто не поблагодарил...
Тип торрента: публичный - доступные источники с открытых трекеров: 
Размер: 748 MB (занимает 0,17 DVDR, для записи нужно 1 болванка DVDR/RW)
 
 
Похожие темы
Форум Тема Автор Торрент Отв. Посл. сооб.
Архив Неоспоримый 2 / Undisputed II: Last Man Standing (Айзек Флорентайн) [2006 г., боевик, драма, криминал, спорт, DVD-5] andrej-ku
0 | 0

4 | 1811

0

17.02.2011 14:46

Архив Неоспоримый 3 / Undisputed III: Redemption (Айзек Флорентайн) [2010 г., боевик, DVD-5] andrej-ku
0 | 0

2 | 946

0

05.11.2011 14:45



Последний раз редактировалось: ryzhkovroman (16.02.2013 16:21), всего редактировалось 3 раз(а)

Чертёнок Пол:Муж

16-Фев-2013 15:40

Скриншоты должны быть размером 688х384 :Search:

Чертёнок Пол:Муж

16-Фев-2013 16:19

Скриншоты должны быть размером 688х384 :(

ryzhkovroman Пол:Муж

16-Фев-2013 16:22

Все вроде теперь правильно

Яндекс.Метрика powered by Sphinx


В Н И М А Н И Е
Сайт не распространяет и не хранит электронные версии произведений, а лишь бесплатно и без коммерческой выгоды (не требуя взамен платы,
SMS и т.д.) предоставляет доступ к создаваемому пользователями каталогу ссылок на торрент-файлы, которые содержат только списки хеш-сумм.
Убедительная просьба с жалобами обращаться напрямую к пользователю, разместившему торрент файл.

Вверх