Loading...
Error

Олигарх (Павел Лунгин) [2002 г., драма, криминал, DVDRip]

Статистика раздачи
Размер:  700 MB   |    Зарегистрирован:  3 года 9 месяцев   |    Скачан:  3 раза

Полного источника не было: 3 года 7 месяцев

Сидов:  0  |  0 KB/s  ]   Личеров:  0  |  0 KB/s  ]

* - сиды/пиры с внешних источников

   
 
Автор Сообщение

ryzhkovroman Пол:Муж

16-Фев-2013 15:10

Олигарх


Год выпуска: 2002
Жанр: драма, криминал
Страна: Россия , Германия , Франция
Режиссер: Павел Лунгин
В ролях: Владимир Машков, Мария Миронова, Андрей Краско, Леван Учанейшвили, Михаил Вассербаум, Сергей Юшкевич, Александр Самойленко, Наталья Коляканова, Александр Балуев, Владимир Стеклов
Сюжет фильма:
История жизни. Россия. Последние два десятилетия. Время перемен, необратимо изменившее страну и всех нас. Академики обнищали, младшие научные сотрудники обрели невероятные богатства и власть, стали всемогущими олигархами…История любви. Он был готов положить весь мир к ее ногам. И мог себе это позволить… История денег. Деньги заработать можно. Даже большие деньги. Но как потом остаться в живых?..История успеха. За все надо платить. История большого бизнеса в России — это история людей, которые всего достигли. Но они дорого заплатили за свой успех. Кто-то — дружбой, кто-то — любовью, кто-то — собственной жизнью…
Основные события и главные герои фильма не вымышлены. Имена изменены. Некоторые все еще живы…

  • Мировая премьера: 2 августа 2002
  • Российская премьера: 19 сентября 2002, «Каро-Премьер»

Качество видео: DVDRip

Продолжительность: 02:02:42
Формат: AVI
Видео: XviD, 608х336, 661 kbps
Аудио: русский, оригинал, MP3 2.0, 128 kbps

Код:

[b]Продолжительность: [/b]02:02:46
[b]Формат: [/b]avi
[b]Видео: [/b] XviD, 608x336, 661 kbps
[b]Аудио: [/b]русский, оригинал, MP3 2.0, 128 kbps
[spoiler="[b]MediaInfo[/b]"][code]General
Complete name                    : D:\Фильмы\Олигарх.avi
Format                           : AVI
Format/Info                      : Audio Video Interleave
File size                        : 700 MiB
Duration                         : 2h 2mn
Overall bit rate                 : 797 Kbps
Writing application              : VirtualDubMod 1.5.4.1 (build 2178/release)
Writing library                  : VirtualDubMod build 2178/release

Video
ID                               : 0
Format                           : MPEG-4 Visual
Format profile                   : Streaming Video@L1
Format settings, BVOP            : Yes
Format settings, QPel            : No
Format settings, GMC             : No warppoints
Format settings, Matrix          : Custom
Codec ID                         : XVID
Codec ID/Hint                    : XviD
Duration                         : 2h 2mn
Bit rate                         : 662 Kbps
Width                            : 608 pixels
Height                           : 336 pixels
Display aspect ratio             : 16/9
Frame rate                       : 25.000 fps
Resolution                       : 24 bits
Colorimetry                      : 4:2:0
Scan type                        : Progressive
Bits/(Pixel*Frame)               : 0.130
Stream size                      : 581 MiB (83%)
Writing library                  : XviD 1.2.1 (UTC 2008-12-04)

Audio
ID                               : 1
Format                           : MPEG Audio
Format version                   : Version 1
Format profile                   : Layer 3
Codec ID                         : 55
Codec ID/Hint                    : MP3
Duration                         : 2h 2mn
Bit rate mode                    : Constant
Bit rate                         : 128 Kbps
Channel(s)                       : 2 channels
Sampling rate                    : 48.0 KHz
Resolution                       : 16 bits
Stream size                      : 112 MiB (16%)
Alignment                        : Aligned on interleaves
Interleave, duration             : 80 ms (2.00 video frames)
Interleave, preload duration     : 504 ms
Writing library                  : LAME3.98r
Encoding settings                : -m j -V 4 -q 2 -lowpass 17 -b 128
Language                         : Russian

[/code][/spoiler]
picpicpic
Для увеличения картинки щелкните мышкой по превью

Этот торрент недоступен для скачивания без регистрации, однако доступен по публичной magnet-ссылке (источники с публичных трекеров). Перед использованием ссылки прочтите, пожалуйста Пользовательское соглашение, а также как можно дольше оставайтесь на раздаче! Для того, чтобы скачать сам торрент-файл (который видит больше источников), а также для того, чтобы поблагодарить релизера, вам необходимо зарегистрироваться. Если регистрироваться лень - вы можете также попробовать скачать релиз по нашим партнерским ссылкам ниже.

[underverse.su].t24240.torrent
Трекер: Зарегистрирован   [ 16.02.2013 15:10 ]  

Статус: проверено (by Чертёнок at 16.02.2013 15:51)
Поблагодарили: пока никто не поблагодарил...
Тип торрента: публичный - доступные источники с открытых трекеров: 
Размер: 700 MB (занимает 0,16 DVDR, для записи нужно 1 болванка DVDR/RW)
 
 

Яндекс.Метрика powered by Sphinx


В Н И М А Н И Е
Сайт не распространяет и не хранит электронные версии произведений, а лишь бесплатно и без коммерческой выгоды (не требуя взамен платы,
SMS и т.д.) предоставляет доступ к создаваемому пользователями каталогу ссылок на торрент-файлы, которые содержат только списки хеш-сумм.
Убедительная просьба с жалобами обращаться напрямую к пользователю, разместившему торрент файл.

Вверх