Loading...
Error

Жизнь прекрасна / La Vita e bella (Роберто Бениньи) [1997 г., драма, мелодрама, комедия, военный, BDRip-AVC] DVO

Статистика раздачи
Размер:  1,45 GB   |    Зарегистрирован:  3 года 9 месяцев   |    Скачан:  12 раз

Полного источника не было: 2 часа 9 минут

Сидов:  0  |  0 KB/s  ]   Личеров:  0  |  0 KB/s  ]

* - сиды/пиры с внешних источников

   
 
Автор Сообщение

garry Пол:Муж

15-Фев-2013 16:34

Жизнь прекрасна / La Vita è bella


Год выпуска: 1997
Жанр: драма, мелодрама, комедия, военный
Страна: Италия
Режиссер: Роберто Бениньи
В ролях: Роберто Бениньи, Николетта Браски, Джорджио Кантарини, Джустино Дурано, Серджио Бини Бустрик, Мариса Паредес, Хорст Буххольц, Лидия Альфонси, Джулиана Лоджодиче, Америго Фонтани
Сюжет фильма:
Во время II Мировой войны в Италии в концлагерь были отправлены евреи, отец и его маленький сын. Жена, итальянка, добровольно последовала вслед за ними. В лагере отец сказал сыну, что все происходящее вокруг является очень большой игрой за приз в настоящий танк, который достанется тому мальчику, который сможет не попасться на глаза надзирателям. Он сделал все, чтобы сын поверил в игру и остался жив, прячась в бараке.

  • Мировая премьера: 20 декабря 1997


Качество видео: BDRip-AVC

Продолжительность: 01:56:11
Формат: MKV
Видео: x264, 916x492, 1404 kbps
Аудио: русский, двухголосый закадровый [профессиональный, R5], AC3 5.1, 384 kbps

Код:

General
 Unique ID : 193139303440850208857169948228447862567 (0x914D46DBF00B8FBC8FE25EA2BC9B7F27)
 Complete name : D:\Zhizn.prekrasna.1997.BDRip.mkv
 Format : Matroska
 Format version : Version 2
 File size : 1.45 GiB
 Duration : 1h 56mn
 Overall bit rate mode : Variable
 Overall bit rate : 1 792 Kbps
 Encoded date : UTC 2012-05-07 22:11:23
 Writing application : mkvmerge v5.0.1 ('Es ist Sommer') built on Oct 24 2011 19:45:06
 Writing library : libebml v1.2.2 + libmatroska v1.3.0

Video
 ID : 1
 Format : AVC
 Format/Info : Advanced Video Codec
 Format profile : High@L4.1
 Format settings, CABAC : Yes
 Format settings, ReFrames : 9 frames
 Codec ID : V_MPEG4/ISO/AVC
 Duration : 1h 56mn
 Bit rate mode : Variable
 Bit rate : 1 404 Kbps
 Maximum bit rate : 40.0 Mbps
 Width : 916 pixels
 Height : 492 pixels
 Display aspect ratio : 1.862
 Frame rate : 23.976 fps
 Color space : YUV
 Chroma subsampling : 4:2:0
 Bit depth : 8 bits
 Scan type : Progressive
 Bits/(Pixel*Frame) : 0.130
 Stream size : 1.11 GiB (77%)
 Writing library : x264 core 120 r2164 da19765
 Encoding settings : cabac=1 / ref=9 / deblock=1:-2:-1 / analyse=0x3:0x113 / me=umh / subme=11 / psy=1 / psy_rd=1.08:0.04 / mixed_ref=1 / me_range=32 / chroma_me=1 / trellis=2 / 8x8dct=1 / cqm=0 / deadzone=21,11 / fast_pskip=0 / chroma_qp_offset=-3 / threads=6 / sliced_threads=0 / nr=0 / decimate=1 / interlaced=0 / bluray_compat=0 / constrained_intra=0 / bframes=8 / b_pyramid=2 / b_adapt=2 / b_bias=0 / direct=3 / weightb=1 / open_gop=0 / weightp=2 / keyint=240 / keyint_min=24 / scenecut=40 / intra_refresh=0 / rc=2pass / mbtree=0 / bitrate=1404 / ratetol=1.0 / qcomp=0.70 / qpmin=10 / qpmax=51 / qpstep=4 / cplxblur=20.0 / qblur=0.5 / ip_ratio=1.40 / pb_ratio=1.30 / aq=1:1.0

Audio
 ID : 2
 Format : AC-3
 Format/Info : Audio Coding 3
 Mode extension : CM (complete main)
 Codec ID : A_AC3
 Duration : 1h 56mn
 Bit rate mode : Constant
 Bit rate : 384 Kbps
 Channel(s) : 6 channels
 Channel positions : Front: L C R, Side: L R, LFE
 Sampling rate : 48.0 KHz
 Bit depth : 16 bits
 Compression mode : Lossy
 Stream size : 319 MiB (21%)
 Language : Russian

Menu
 00:00:00.000 : en:Chapter 1
 00:05:41.883 : en:Chapter 2
 00:11:20.721 : en:Chapter 3
 00:16:43.544 : en:Chapter 4
 00:20:43.282 : en:Chapter 5
 00:25:21.561 : en:Chapter 6
 00:32:53.513 : en:Chapter 7
 00:35:57.196 : en:Chapter 8
 00:39:55.476 : en:Chapter 9
 00:47:40.440 : en:Chapter 10
 00:51:17.657 : en:Chapter 11
 00:54:11.831 : en:Chapter 12
 00:56:16.456 : en:Chapter 13
 01:02:07.305 : en:Chapter 14
 01:09:36.255 : en:Chapter 15
 01:13:45.003 : en:Chapter 16
 01:19:49.367 : en:Chapter 17
 01:22:26.024 : en:Chapter 18
 01:29:54.472 : en:Chapter 19
 01:38:55.012 : en:Chapter 20
 01:52:42.881 : en:Chapter 21
Семпл: http://rusfolder.com/30364021

picpicpic
Для увеличения картинки щелкните мышкой по превью

Этот торрент недоступен для скачивания без регистрации, однако доступен по публичной magnet-ссылке (источники с публичных трекеров). Перед использованием ссылки прочтите, пожалуйста Пользовательское соглашение, а также как можно дольше оставайтесь на раздаче! Для того, чтобы скачать сам торрент-файл (который видит больше источников), а также для того, чтобы поблагодарить релизера, вам необходимо зарегистрироваться. Если регистрироваться лень - вы можете также попробовать скачать релиз по нашим партнерским ссылкам ниже.

[underverse.su].t24195.torrent
Трекер: Зарегистрирован   [ 15.02.2013 16:34 ]  

Статус: проверено (by garry at 15.02.2013 16:35)
Поблагодарили: пока никто не поблагодарил...
Тип торрента: публичный - доступные источники с открытых трекеров: 
Размер: 1,45 GB (занимает 1/3 DVDR, для записи нужно 1 болванка DVDR/RW)
 
 
Похожие темы
Форум Тема Автор Торрент Отв. Посл. сооб.
Зарубежное кино [DVDRip, Low-Res HDRip, и т.д.] Жизнь прекрасна / La vita e bella / Life Is Beautiful (Роберто Бениньи / Roberto Benigni) [1997 г., драма, мелодрама, комедия, BDRip] MVO 90ytr90
27 | 0

0 | 445

6

16.02.2016 19:08

Зарубежное кино [DVDRip, Low-Res HDRip, и т.д.] Жизнь прекрасна / La vita e bella / Life Is Beautiful (Роберто Бениньи / Roberto Benigni) [1997 г., драма, мелодрама, комедия, BDRip-AVC] MVO + Eng + Ita + Subs 90ytr90
7 | 0

1 | 437

5

17.02.2016 09:15

Зарубежное кино HQ Жизнь прекрасна / 50/50 (Джонатан Левин) [2011 г., драма, комедия, биография, HDRip] (Rus, Eng) HQ Underverse HQ Underverse
1 | 0

0 | 8737

22

19.04.2012 08:47

* Архив Жизнь прекрасна / La Vita e Bella / Life is Beautiful (Роберто Бениньи ) [1997 г., комедия, мелодрама, драма, военный, DVDRip] Pablo Escobar

4 | 1938

29.08.2010 23:52


Яндекс.Метрика powered by Sphinx


В Н И М А Н И Е
Сайт не распространяет и не хранит электронные версии произведений, а лишь бесплатно и без коммерческой выгоды (не требуя взамен платы,
SMS и т.д.) предоставляет доступ к создаваемому пользователями каталогу ссылок на торрент-файлы, которые содержат только списки хеш-сумм.
Убедительная просьба с жалобами обращаться напрямую к пользователю, разместившему торрент файл.

Вверх