Loading...
Error

Временно беременна / Labor Pains (Лара Шапиро) [2009 г., Mелодрама, комедия, BDRip-AVC] Dub + Original

Статистика раздачи
Размер:  2,62 GB   |    Зарегистрирован:  3 года 9 месяцев   |    Скачан:  5 раз

Полного источника не было: 10 дней

Сидов:  0  |  0 KB/s  ]   Личеров:  0  |  0 KB/s  ]

* - сиды/пиры с внешних источников

   
 
Автор Сообщение

Чертёнок Пол:Муж

15-Фев-2013 15:43

Временно беременна / Labor Pains


Год выпуска: 2009
Жанр: Mелодрама, комедия
Страна: США
Режиссер: Лара Шапиро
В ролях: Линдсей Лохан, Люк Кирби, Крис Парнелл, Аарон Йу, Бриджит Мендлер, Трэйси Эллис Росс, Кевин Ковейс, Бонни Соммервиль, Шерил Хайнс, Крид Брэттон, Джанин Гарофало, Кейко Аджена, Дональд В. Аллен, Джек Аксельрод, Александра Баррето, Дженни Блонг, Ширли Бренер, Криста Кэмпбелл, Мари Читхэм, Пэт Кроуфорд Браун, Дарси ДеМосс, Пит Гарднер, Уилли Гарсон, Мишель Джиллетт, Онико Эдейн, Сара Эрнандез, Этан Кент, Гэвин Галлердо, Тарри Маркелл, Эмбер Линн Александр, Лаура Лигуори, Джеймс Таппан, Клер Рисоли, Ана Ортиз, Бэрри Папик, Санни Рэйна, Лонни Росс, Марк Сентер, Кэйтлин Шорт
Сюжет фильма:
Занимая должность референта в престижном издательстве сложно оставаться невозмутимой, когда среди прочих нелепейших поручений — ежедневное мытье собачки шефа. Естественное желание «спустить пары» выливается для героини Tea в увольнение. Однако быстрота реакции и подкованность в дискриминационных законах позволяет Tea не только сохранить должность, но и сделать карьеру. Героиня заявляет, что она беременна. Теперь рабочие будни перемешиваются с мнимыми схватками, а «невинная» ложь создает все больше курьезных ситуаций. Статус беременной приносит свои плоды и привносит что-то новое в смысл жизни Tea. Но, симулируя беременность, придется симулировать и роды. Ограничится ли авантюра 9-месячным сроком?


Качество видео: BDRip-AVC

Продолжительность: 01:28:55
Формат: MKV
Видео: MPEG-4 AVC, 1024x554, 3329 kbps
Аудио #1: русский, дублированный, AC3 5.1, 448kbps
Аудио #2: английский, оригинал, AC3 5.1, 448kbps
Субтитры: тип: внешние, английский, формат: SRT

Код:

Общее
Уникальный идентификатор : 244215759417775898662627504959195551721 (0xB7BA3E90B25AB4838E1515DB647D97E9)
Полное имя : D:4Vremenno.beremenna.2009.x264.BDRip.(AVC).Enigma.mkv
Формат : Matroska
Версия формата : Version 2
Размер файла : 2,62 Гбайт
Продолжительность : 1 ч. 28 м.
Общий поток : 4225 Кбит/сек
Название фильма : Vremenno.beremenna.2009.x264.BDRip.(AVC).Enigma
Дата кодирования : UTC 2013-02-14 17:48:22
Программа кодирования : mkvmerge v4.0.0 ('The Stars were mine') сборка от Jun 6 2010 16:18:42
Библиотека кодирования : libebml v1.0.0 + libmatroska v1.0.0

Видео
Идентификатор : 1
Формат : AVC
Формат/Информация : Advanced Video Codec
Профиль формата : High@L4.1
Параметр CABAC формата : Да
Параметр ReFrames формата : 8 кадров
Идентификатор кодека : V_MPEG4/ISO/AVC
Продолжительность : 1 ч. 28 м.
Битрейт : 3329 Кбит/сек
Ширина : 1024 пикселя
Высота : 554 пикселя
Соотношение сторон : 16:9
Частота кадров : 23,976 кадра/сек
Цветовое пространство : YUV
Субдискретизация насыщенности : 4:2:0
Битовая глубина : 8 бит
Тип развёртки : Прогрессивная
Бит/(Пиксели*Кадры) : 0.245
Размер потока : 2,02 Гбайт (77%)
Заголовок : Rip by Enigma
Библиотека кодирования : x264 core 129 r2245 bc13772
Настройки программы : cabac=1 / ref=8 / deblock=1:-2:-2 / analyse=0x3:0x133 / me=umh / subme=11 / psy=1 / psy_rd=1.00:0.00 / mixed_ref=1 / me_range=48 / chroma_me=1 / trellis=2 / 8x8dct=1 / cqm=0 / deadzone=21,11 / fast_pskip=0 / chroma_qp_offset=-2 / threads=3 / lookahead_threads=1 / sliced_threads=0 / nr=0 / decimate=0 / interlaced=0 / bluray_compat=0 / constrained_intra=0 / bframes=8 / b_pyramid=2 / b_adapt=2 / b_bias=0 / direct=3 / weightb=1 / open_gop=0 / weightp=2 / keyint=240 / keyint_min=23 / scenecut=40 / intra_refresh=0 / rc_lookahead=40 / rc=2pass / mbtree=1 / bitrate=3329 / ratetol=1.0 / qcomp=0.60 / qpmin=10 / qpmax=51 / qpstep=4 / cplxblur=20.0 / qblur=0.5 / ip_ratio=1.40 / aq=2:1.00
Язык : English

Аудио #1
Идентификатор : 2
Формат : AC-3
Формат/Информация : Audio Coding 3
Расширение режима : CM (complete main)
Идентификатор кодека : A_AC3
Продолжительность : 1 ч. 28 м.
Вид битрейта : Постоянный
Битрейт : 448 Кбит/сек
Каналы : 6 каналов
Расположение каналов : Front: L C R, Side: L R, LFE
Частота : 48,0 КГц
Битовая глубина : 16 бит
Метод сжатия : С потерями
Размер потока : 285 Мбайт (11%)
Язык : Russian

Аудио #2
Идентификатор : 3
Формат : AC-3
Формат/Информация : Audio Coding 3
Расширение режима : CM (complete main)
Идентификатор кодека : A_AC3
Продолжительность : 1 ч. 28 м.
Вид битрейта : Постоянный
Битрейт : 448 Кбит/сек
Каналы : 6 каналов
Расположение каналов : Front: L C R, Side: L R, LFE
Частота : 48,0 КГц
Битовая глубина : 16 бит
Метод сжатия : С потерями
Размер потока : 285 Мбайт (11%)
Язык : English

Текст
Идентификатор : 4
Формат : UTF-8
Идентификатор кодека : S_TEXT/UTF8
Идентификатор кодека/Информация : UTF-8 Plain Text
Язык : English
Релиз группы:

picpicpicpic
Для увеличения картинки щелкните мышкой по превью

Этот торрент недоступен для скачивания без регистрации, однако доступен по публичной magnet-ссылке (источники с публичных трекеров). Перед использованием ссылки прочтите, пожалуйста Пользовательское соглашение, а также как можно дольше оставайтесь на раздаче! Для того, чтобы скачать сам торрент-файл (который видит больше источников), а также для того, чтобы поблагодарить релизера, вам необходимо зарегистрироваться. Если регистрироваться лень - вы можете также попробовать скачать релиз по нашим партнерским ссылкам ниже.

[underverse.su].t24189.torrent
Трекер: Зарегистрирован   [ 15.02.2013 15:43 ]  

Статус: проверено (by Чертёнок at 15.02.2013 15:44)
Поблагодарили: пока никто не поблагодарил...
Тип торрента: публичный - доступные источники с открытых трекеров: 
Размер: 2,62 GB (занимает 0,6 DVDR, для записи нужно 1 болванка DVDR/RW)
 
 
Похожие темы
Форум Тема Автор Торрент Отв. Посл. сооб.
Зарубежное кино [DVDRip, Low-Res HDRip, и т.д.] Временно беременна / Labor Pains (Лара Шапиро) [2009 г., комедия, BDRip] Dub + Original (Eng) [М@ЛЬВИН@]
2 | 0

4 | 1270

2

08.01.2015 20:08


Яндекс.Метрика powered by Sphinx


В Н И М А Н И Е
Сайт не распространяет и не хранит электронные версии произведений, а лишь бесплатно и без коммерческой выгоды (не требуя взамен платы,
SMS и т.д.) предоставляет доступ к создаваемому пользователями каталогу ссылок на торрент-файлы, которые содержат только списки хеш-сумм.
Убедительная просьба с жалобами обращаться напрямую к пользователю, разместившему торрент файл.

Вверх