Loading...
Error

Хозяйка тайги 2. К морю / Серии: 1-24 (24) ( Александр Замятин) [2013, Боевик, криминальный фильм, приключения, SATRip]

Статистика раздачи
Размер:  14,18 GB   |    Зарегистрирован:  3 года 9 месяцев   |    Скачан:  11 раз

Полного источника не было: 1 год 2 месяца

Сидов:  0  |  0 KB/s  ]   Личеров:  0  |  0 KB/s  ]

* - сиды/пиры с внешних источников

   
 
Автор Сообщение

nemos Пол:Муж

14-Фев-2013 15:11

Хозяйка тайги 2. К морю


Год выпуска: 2013
Жанр: криминальный, боевик, приключения
Страна: Россия
Режиссер: Александр Замятин
В ролях: Эльмар Аблаев, Роман Гусев, Александр Бухаров, Татьяна Федоровская, Владимир Капустин, Александр Карпов, Максим МаксимюкТатьяна Коновалова,
Сюжет фильма:
"Хозяйка тайги 2. К морю" - продолжение всеми любимого сериала о милиционере Константине Воеводине и его верной супруге Василисе. Василиса - егерь, и просто влюблена в сибирскую тайгу, свой родной край. Но жизнь не стоит на месте и её муж получает назначение на новое место работы. Супруги не могут расстаться и вместе перебираются жить в небольшой приморский поселок на юге России. Как ни странно, но ни ласковое море, ни палящее южное солнце, ни ленивая атмосфера курорта, ничто так и не спасло их от безумных приключений и опасности, подстерегающей на каждому углу. Не все так спокойно в курортном королевстве, и в новых сериях чете Воеводиных не дадут заскучать.



Продолжительность: 24x~00:44:56
Формат: AVI
Видео: XviD, 720x384, 1 720 kbps
Аудио: русский, MP3 2.0, 192 kbps

Код:

E:\С underverse-3 Фильмы\hozyaika.taigi.2\hozyaika.taigi.2.24.avi
   General
      Complete name : E:\С underverse-3 Фильмы\hozyaika.taigi.2\hozyaika.taigi.2.24.avi
      Format : AVI
      Format/Info : Audio Video Interleave
      File size : 618 MiB
      Duration : 44mn 56s
      Overall bit rate : 1 922 Kbps
      Writing application : VirtualDubModRus 1.5.10.2 (build 2540/release)
      Writing library : VirtualDubMod build 2540/release
   Video #0
      ID : 0
      Format : MPEG-4 Visual
      Format profile : Advanced Simple@L5
      Format settings, BVOP : 1
      Format settings, QPel : No
      Format settings, GMC : No warppoints
      Format settings, Matrix : Default (H.263)
      Codec ID : XVID
      Codec ID/Hint : XviD
      Duration : 44mn 56s
      Bit rate : 1 720 Kbps
      Width : 720 pixels
      Height : 384 pixels
      Display aspect ratio : 1.85:1
      Frame rate : 25.000 fps
      Color space : YUV
      Chroma subsampling : 4:2:0
      Bit depth : 8 bits
      Scan type : Progressive
      Compression mode : Lossy
      Bits/(Pixel*Frame) : 0.249
      Stream size : 553 MiB (90%)
      Writing library : XviD 1.2.1 (UTC 2008-12-04)
   Audio #1
      ID : 1
      Format : MPEG Audio
      Format version : Version 1
      Format profile : Layer 3
      Codec ID : 55
      Codec ID/Hint : MP3
      Duration : 44mn 56s
      Bit rate mode : Constant
      Bit rate : 192 Kbps
      Channel(s) : 2 channels
      Sampling rate : 48.0 KHz
      Compression mode : Lossy
      Stream size : 61.7 MiB (10%)
      Alignment : Aligned on interleaves
      Interleave, duration : 40 ms (1.00 video frame)
      Interleave, preload duration : 504 ms
      Writing library : LAME3.98r
      Encoding settings : -m s -V 4 -q 2 -lowpass 18.6 -b 192
Семпл: http://multi-up.com/831116

picpicpicpicpicpicpicpicpicpicpicpicpicpic
Для увеличения картинки щелкните мышкой по превью
Сериал который был выложен и зарегистрирован более двух месяцев назад буду раздавать с 23.00ч до 06.00ч утра ( вина в этом немоя, а пользователей которые неподдерживают раздачу)

Этот торрент недоступен для скачивания без регистрации, однако доступен по публичной magnet-ссылке (источники с публичных трекеров). Перед использованием ссылки прочтите, пожалуйста Пользовательское соглашение, а также как можно дольше оставайтесь на раздаче! Для того, чтобы скачать сам торрент-файл (который видит больше источников), а также для того, чтобы поблагодарить релизера, вам необходимо зарегистрироваться. Если регистрироваться лень - вы можете также попробовать скачать релиз по нашим партнерским ссылкам ниже.

[underverse.su].t24206.torrent
Трекер: Зарегистрирован   [ 15.02.2013 19:01 ]  

Статус: проверено (by Чертёнок at 15.02.2013 19:15)
Поблагодарили: пока никто не поблагодарил...
Тип торрента: публичный - доступные источники с открытых трекеров: 
Размер: 14,18 GB (занимает 3,24 DVDR, для записи нужно 4 болванки DVDR/RW)
 
 


Последний раз редактировалось: nemos (06.11.2014 12:30), всего редактировалось 3 раз(а)

nemos Пол:Муж

15-Фев-2013 19:13

Обновлен торрент,

Яндекс.Метрика powered by Sphinx


В Н И М А Н И Е
Сайт не распространяет и не хранит электронные версии произведений, а лишь бесплатно и без коммерческой выгоды (не требуя взамен платы,
SMS и т.д.) предоставляет доступ к создаваемому пользователями каталогу ссылок на торрент-файлы, которые содержат только списки хеш-сумм.
Убедительная просьба с жалобами обращаться напрямую к пользователю, разместившему торрент файл.

Вверх