Loading...
Error

Марсианский дозор / Top of the Food Chain (Джон Пейз) [1999 г., ужасы, фантастика, комедия, DVDRip] MVO

Статистика раздачи
Размер:  1,37 GB   |    Зарегистрирован:  3 года 9 месяцев   |    Скачан:  37 раз

Полного источника не было: 1 год 1 месяц

Сидов:  0  |  0 KB/s  ]   Личеров:  0  |  0 KB/s  ]

* - сиды/пиры с внешних источников

   
 
Автор Сообщение

RG NewCinema 

14-Фев-2013 13:16

Марсианский дозор / Top of the Food Chain


Год выпуска: 1999
Жанр: ужасы, фантастика, комедия
Страна: Канада
Режиссер: Джон Пейз
В ролях: Роберт Бокстэл, Лорри Айерс, Рон Гэбриел, Бернард Беренс, Джеймс Оллоди, Питер Дональдсон, Фиона Лоуи, Кэмпбелл Скотт, Мэгги Баттерфилд, Гарди Т. Лайнем
Сюжет фильма:
У населения расположенного в глуши канадского городка сплошные проблемы — сначала закрылась местная фабрика, затем прекратило работать телевидение, и наконец городские жители начали пожираться каким-то непонятными существами.

  • Мировая премьера: 11 сентября 1999

|
Качество видео: DVDRip

Продолжительность: 01:28:25
Формат: AVI
Видео: XviD, 704x528, 1822 kbps
Аудио: русский, многоголосый закадровый [профессиональный], AC3 5.1, 384 kbps

Код:

Полное имя : Marsianskij.Dozor.1999.XviD.DVDRip.avi
Формат : AVI
Формат/Информация : Audio Video Interleave
Размер файла : 1,37 Гбайт
Продолжительность : 1 ч. 28 м.
Общий поток : 2216 Кбит/сек
Программа кодирования : VirtualDubMod 1.5.10.3 | www.virtualdub-fr.org || (build 2550/release)
Библиотека кодирования : VirtualDubMod build 2550/release

Видео
Идентификатор : 0
Формат : MPEG-4 Visual
Профиль формата : Advanced Simple@L5
Параметр BVOP формата : 1
Параметр QPel формата : Нет
Параметр GMC формата : Без точки перехода
Параметр матрицы формата : Выборочная
Идентификатор кодека : XVID
Идентификатор кодека/Подсказка : XviD
Продолжительность : 1 ч. 28 м.
Битрейт : 1822 Кбит/сек
Ширина : 704 пикселя
Высота : 528 пикселей
Соотношение сторон : 4:3
Частота кадров : 25,000 кадров/сек
Цветовое пространство : YUV
Субдискретизация насыщенности : 4:2:0
Битовая глубина : 8 бит
Тип развёртки : Прогрессивная
Метод сжатия : С потерями
Бит/(Пиксели*Кадры) : 0.196
Размер потока : 1,13 Гбайт (82%)
Библиотека кодирования : XviD 64

Аудио
Идентификатор : 1
Формат : AC-3
Формат/Информация : Audio Coding 3
Расширение режима : CM (complete main)
Параметр Endianness формата : Big
Идентификатор кодека : 2000
Продолжительность : 1 ч. 28 м.
Вид битрейта : Постоянный
Битрейт : 384 Кбит/сек
Каналы : 6 каналов
Расположение каналов : Front: L C R, Side: L R, LFE
Частота : 48,0 КГц
Битовая глубина : 16 бит
Метод сжатия : С потерями
Размер потока : 243 Мбайт (17%)
Выравнивание : Разделение по промежуткам
Продолжительность промежутка : 40 мс. (1,00 видеокадр)
Время предзагрузки промежутка : 500 мс.
picpicpic
Для увеличения картинки щелкните мышкой по превью

Этот торрент недоступен для скачивания без регистрации, однако доступен по публичной magnet-ссылке (источники с публичных трекеров). Перед использованием ссылки прочтите, пожалуйста Пользовательское соглашение, а также как можно дольше оставайтесь на раздаче! Для того, чтобы скачать сам торрент-файл (который видит больше источников), а также для того, чтобы поблагодарить релизера, вам необходимо зарегистрироваться. Если регистрироваться лень - вы можете также попробовать скачать релиз по нашим партнерским ссылкам ниже.

[underverse.su].t24164.torrent
Трекер: Зарегистрирован   [ 14.02.2013 13:16 ]  

Статус: проверено (by Чертёнок at 14.02.2013 13:23)
Поблагодарили: пока никто не поблагодарил...
Тип торрента: публичный - доступные источники с открытых трекеров: 
Размер: 1,37 GB (занимает 0,31 DVDR, для записи нужно 1 болванка DVDR/RW)
 
 

Яндекс.Метрика powered by Sphinx


В Н И М А Н И Е
Сайт не распространяет и не хранит электронные версии произведений, а лишь бесплатно и без коммерческой выгоды (не требуя взамен платы,
SMS и т.д.) предоставляет доступ к создаваемому пользователями каталогу ссылок на торрент-файлы, которые содержат только списки хеш-сумм.
Убедительная просьба с жалобами обращаться напрямую к пользователю, разместившему торрент файл.

Вверх