Loading...
Error

Фантасты-предсказатели / Prophets of Science Fiction [2012 г., документальный, HDTVRip 1080i] VO + Original

Статистика раздачи
Размер:  17,01 GB   |    Зарегистрирован:  3 года 9 месяцев   |    Скачан:  21 раз
Сидов:  1  |  6 KB/s  ]   Личеров:  0  |  0 KB/s  ]

* - сиды/пиры с внешних источников

   
 
Автор Сообщение

МИТЯ Пол:Муж

13-Фев-2013 16:29

Фантасты-предсказатели / Prophets of Science Fiction


Год выпуска: 2012
Жанр: документальный
Страна: США
Режиссер: Диклэн Вайтблум
В ролях: Джонатан Адамс, Мичио Каку, Дэвид Брин, Ким Стэнли Робинсон, Ридли Скотт, Акива Голдсман, Роберто Орси, Дэн Веббер, Мэтт Фрэкшн
Сюжет фильма:
Ридли Скотт, гениальный автор таких классических голливудских фильмов, как «Чужой», «Бегущий по лезвию» и «Гладиатор», представляет на канале Discovery Science новую восьмисерийную программу «Фантасты-предсказатели». Автор научно-фантастических произведений, Скотт выпускает из рук камеру и рассказывает об отношениях между научной фантастикой и постоянно меняющимися наукой и технологией. От Жюля Верна до Айзека Азимова, от Джорджа Лукаса до Филипа К. Дика мечты творцов зачастую становились источником вдохновения для исследователей, старающихся открыть что-то новое и позволить человечеству сделать еще один шаг в будущее. Каждая серия рассказывает об одном пророке от научной фантастики, чье воображение позволило изменить реальность.
1. Мэри Шелли / Mary Shelley
2. Филлип К. Дик / Philip K. Dick
3. Герберт Уэллс / AH.G. Wells
4. Артур Кларк / Arthur C. Clarke
5. Айзек Азимов / Isaac Asimov
6. Жюль Верн / Jules Verne
7. Роберт Хайнлайн / Robert Heinlein
8. Джордж Лукас / George Lucas

Качество видео: HDTVRip 1080i (местами артефакты, но лучше в интернете пока нет)

Продолжительность: 8 серий по ~ 44 минуты
Формат: TS
Видео: AVC, 1920x1080, 6085 kbps
Аудио: русский, одноголосый закадровый [профессиональный, студии "Кириллица"], AC3 5.1, 384 kbps
Аудио: английский, оригинал, AC3 5.1, 384 kbps

Код:

General
ID                             : 6 (0x6)
Complete name                  : E:\Документальное\Фантасты-предсказатели (HD)\Роберт Хайнлайн.ts
Format                         : MPEG-TS
File size                      : 2.22 GiB
Duration                       : 44mn 1s
Overall bit rate mode          : Variable
Overall bit rate               : 7 218 Kbps

Video
ID                             : 325 (0x145)
Menu ID                        : 12105 (0x2F49)
Format                         : AVC
Format/Info                    : Advanced Video Codec
Format profile                 : High@L4.0
Format settings, CABAC         : Yes
Format settings, ReFrames      : 3 frames
Codec ID                       : 27
Duration                       : 44mn 1s
Bit rate                       : 6 474 Kbps
Width                          : 1 920 pixels
Height                         : 1 080 pixels
Display aspect ratio           : 16:9
Frame rate                     : 25.000 fps
Standard                       : Component
Color space                    : YUV
Chroma subsampling             : 4:2:0
Bit depth                      : 8 bits
Scan type                      : Interlaced
Scan order                     : Top Field First
Bits/(Pixel*Frame)             : 0.125
Stream size                    : 1.99 GiB (90%)
Color primaries                : BT.709
Transfer characteristics       : BT.709
Matrix coefficients            : BT.709

Audio
ID                             : 405 (0x195)
Menu ID                        : 12105 (0x2F49)
Format                         : AC-3
Format/Info                    : Audio Coding 3
Mode extension                 : CM (complete main)
Format settings, Endianness    : Big
Codec ID                       : 6
Duration                       : 44mn 1s
Bit rate mode                  : Constant
Bit rate                       : 384 Kbps
Channel(s)                     : 6 channels
Channel positions              : Front: L C R, Side: L R, LFE
Sampling rate                  : 48.0 KHz
Bit depth                      : 16 bits
Compression mode               : Lossy
Delay relative to video        : 121ms
Stream size                    : 121 MiB (5%)
Language                       : Russian
Language, more info            : Clean effects
picpicpicpic
Для увеличения картинки щелкните мышкой по превью

Этот торрент недоступен для скачивания без регистрации, однако доступен по публичной magnet-ссылке (источники с публичных трекеров). Перед использованием ссылки прочтите, пожалуйста Пользовательское соглашение, а также как можно дольше оставайтесь на раздаче! Для того, чтобы скачать сам торрент-файл (который видит больше источников), а также для того, чтобы поблагодарить релизера, вам необходимо зарегистрироваться. Если регистрироваться лень - вы можете также попробовать скачать релиз по нашим партнерским ссылкам ниже.

[underverse.su].t24150.torrent
Трекер: Зарегистрирован   [ 14.02.2013 07:24 ]  

Статус: проверено (by Паукан at 14.02.2013 13:48)
Поблагодарили: 2 человека
Тип торрента: публичный - доступные источники с открытых трекеров: 
Размер: 17,01 GB (занимает 3,89 DVDR, для записи нужно 4 болванки DVDR/RW)
 
 


Последний раз редактировалось: МИТЯ (13.02.2013 18:00), всего редактировалось 4 раз(а)

МИТЯ Пол:Муж

13-Фев-2013 16:52

странно, почему то внешних источников нет, хотя ничего в файлах не менял. даже в проге сиды есть.

если можно то подскажите, что править, или же удалить целиком раздачу в противном случае

garry Пол:Муж

14-Фев-2013 07:26

МИТЯ
я заменил ТФ. сейчас есть внешние источники.

МИТЯ Пол:Муж

14-Фев-2013 08:44

gari
спасибо! а что было не так?
тогда можно удалить сообщения.
и было бы неплохо добавить рейтинги фильма, а то при создании кинопоиск почему то не нашел, а IMDb формы совсем не было.

Яндекс.Метрика powered by Sphinx


В Н И М А Н И Е
Сайт не распространяет и не хранит электронные версии произведений, а лишь бесплатно и без коммерческой выгоды (не требуя взамен платы,
SMS и т.д.) предоставляет доступ к создаваемому пользователями каталогу ссылок на торрент-файлы, которые содержат только списки хеш-сумм.
Убедительная просьба с жалобами обращаться напрямую к пользователю, разместившему торрент файл.

Вверх