Loading...
Error

Операция «Арго» / Argo (Бен Аффлек) [2012 г., триллер, драма, история, BDRip] Dub HQ Underverse

Статистика раздачи
Размер:  2,17 GB   |    Зарегистрирован:  4 года 6 месяцев   |    Скачан:  1026 раз
Сидов:  1  |  0 KB/s  ]   Личеров:  0  |  0 KB/s  ]

* - сиды/пиры с внешних источников

   
 
Автор Сообщение

HQ Underverse 

13-Фев-2013 13:26

Операция «Арго» / Argo


Год выпуска: 2012
Жанр: триллер, драма, история
Страна: США
Режиссер: Бен Аффлек
В ролях: Бен Аффлек, Брайан Крэнстон, Алан Аркин, Джон Гудмен, Виктор Гарбер, Тейт Донован, Клеа Дюваль, Скут МакНэйри, Рори Кокрейн, Кристофер Денхам
Сюжет фильма:
4 ноября 1979 г. революция в Иране достигает своего апогея, исламисты штурмуют посольство США в Тегеране и берут в заложники 52 американца. Но в этом хаосе шестерым удается ускользнуть и найти прибежище в доме канадского посла. Понимая, что их обнаружение и, вероятнее всего, убийство — всего лишь вопрос времени, Тони Мендес, специалист ЦРУ по тайному вывозу людей из страны, предлагает рискованный план безопасной эвакуации. План столь невероятен, что такое бывает только в кино.

  • Мировая премьера: 31 августа 2012
  • Российская премьера: 8 ноября 2012, «Каро-Премьер»

/
Качество видео: BDRip

Продолжительность: 02:00:22
Формат: avi
Видео: XviD, 720x304, 2124 kbps
Аудио #1: русский, дублированный [лицензия BD CEE], AC3 5.1, 448 kbps
Аудио #2: украинский, многоголосый закадровый [профессиональный, Омікрон], AC3 5.1, 448 kbps (отдельным файлом)
Аудио #3: английский, оригинал, AC3 5.1, 448 kbps (отдельным файлом)
Субтитры #1: внешние, SRT, русский
Субтитры #2: внешние, SRT, русский Forced
Субтитры #3: внешние, SRT, английский
Субтитры #4: внешние, SRT, английский Forced

Код:

General
Complete name                    : D:\Video\Movies\Releases\Argo.2012.BDRip.XviD.AC3.Rus.D.HQ.Underverse.avi
Format                           : AVI
Format/Info                      : Audio Video Interleave
Format profile                   : OpenDML
File size                        : 2.17 GiB
Duration                         : 2h 0mn
Overall bit rate                 : 2 584 Kbps
Writing application              : VirtualDubMod 1.5.10.2 (build 2540/release)
Writing library                  : VirtualDubMod build 2540/release

Video
ID                               : 0
Format                           : MPEG-4 Visual
Format profile                   : Streaming Video@L1
Format settings, BVOP            : Yes
Format settings, QPel            : No
Format settings, GMC             : No warppoints
Format settings, Matrix          : Custom
Muxing mode                      : Packed bitstream
Codec ID                         : XVID
Codec ID/Hint                    : XviD
Duration                         : 2h 0mn
Bit rate                         : 2 125 Kbps
Width                            : 720 pixels
Height                           : 304 pixels
Display aspect ratio             : 2.35
Frame rate                       : 23.976 fps
Resolution                       : 24 bits
Colorimetry                      : 4:2:0
Scan type                        : Progressive
Bits/(Pixel*Frame)               : 0.405
Stream size                      : 1.79 GiB (82%)
Writing library                  : XviD 64

Audio
ID                               : 1
Format                           : AC-3
Format/Info                      : Audio Coding 3
Codec ID                         : 2000
Duration                         : 2h 0mn
Bit rate mode                    : Constant
Bit rate                         : 448 Kbps
Channel(s)                       : 6 channels
Channel positions                : Front: L C R, Surround: L R, LFE
Sampling rate                    : 48.0 KHz
Stream size                      : 386 MiB (17%)
Alignment                        : Split accross interleaves
Interleave, duration             : 42 ms (1.00 video frame)
Interleave, preload duration     : 500 ms
Title                            : Argo.2012.Rus.Dub.AC3.5.1.448.kbps.HQ.Underverse.ac3

General
Complete name                    : D:\Video\Movies\Releases\Argo.2012.BDRip.XviD.AC3.Rus.D.HQ.Underverse.Eng.ac3
Format                           : AC-3
Format/Info                      : Audio Coding 3
File size                        : 386 MiB
Duration                         : 2h 0mn
Overall bit rate                 : 448 Kbps

Audio
Format                           : AC-3
Format/Info                      : Audio Coding 3
Duration                         : 2h 0mn
Bit rate mode                    : Constant
Bit rate                         : 448 Kbps
Channel(s)                       : 6 channels
Channel positions                : Front: L C R, Surround: L R, LFE
Sampling rate                    : 48.0 KHz
Stream size                      : 386 MiB (100%)

General
Complete name                    : D:\Video\Movies\Releases\Argo.2012.BDRip.XviD.AC3.Rus.D.HQ.Underverse.Ukr.ac3
Format                           : AC-3
Format/Info                      : Audio Coding 3
File size                        : 386 MiB
Duration                         : 2h 0mn
Overall bit rate                 : 448 Kbps

Audio
Format                           : AC-3
Format/Info                      : Audio Coding 3
Duration                         : 2h 0mn
Bit rate mode                    : Constant
Bit rate                         : 448 Kbps
Channel(s)                       : 6 channels
Channel positions                : Front: L C R, Surround: L R, LFE
Sampling rate                    : 48.0 KHz
Stream size                      : 386 MiB (100%)

Семпл: http://multi-up.com/830656

Релиз группы:

picpicpic
Для увеличения картинки щелкните мышкой по превью

Этот торрент недоступен для скачивания без регистрации, однако доступен по публичной magnet-ссылке (источники с публичных трекеров). Перед использованием ссылки прочтите, пожалуйста Пользовательское соглашение, а также как можно дольше оставайтесь на раздаче! Для того, чтобы скачать сам торрент-файл (который видит больше источников), а также для того, чтобы поблагодарить релизера, вам необходимо зарегистрироваться. Если регистрироваться лень - вы можете также попробовать скачать релиз по нашим партнерским ссылкам ниже.

[underverse.su].t24141.torrent
Трекер: Зарегистрирован   [ 13.02.2013 13:26 ]  

Статус: проверено (by Паукан at 13.02.2013 13:29)
Поблагодарили: 51 человек
Тип торрента: публичный - доступные источники с открытых трекеров: 
Размер: 2,17 GB (занимает 1/2 DVDR, для записи нужно 1 болванка DVDR/RW)
 
 
Похожие темы
Форум Тема Автор Торрент Отв. Посл. сооб.
# Зарубежное кино [DVDRip, Low-Res HDRip, и т.д.] Операция «Арго» / Argo (Бен Аффлек) [2012 г., Триллер, драма, биография, HDRip] Dub 90ytr90
3 | 0

0 | 2220

353

03.02.2013 11:46

Зарубежное кино [DVDRip, Low-Res HDRip, и т.д.] Операция «Арго» / Argo [Extended Cut] (Бен Аффлек / Ben Affleck) [2012 г., триллер, драма, история, BDRip] AVO (Ю.Сербин) 90ytr90
5 | 0

0 | 1244

41

21.03.2013 19:33

T Зарубежное кино [DVDRip, Low-Res HDRip, и т.д.] Операция «Хромит» / In-cheon sang-ryuk jak-jeon (Джон Х. Ли / John H. Lee) [2016 г., боевик, драма, военный, история, WEBRip] MVO (КОЛОБОК) 90ytr90
20 | 0

0 | 347

14

08.11.2016 10:15

Зарубежное кино [DVDRip, Low-Res HDRip, и т.д.] Операция «Мертвый снег» 2 / Dod Sno 2 (Томми Виркола) [2014 г., ужасы, боевик, комедия, HDRip] DVO [DeadSno & den904] Паукан
0 | 0

0 | 1595

37

07.07.2014 07:36

Зарубежное кино [DVDRip, Low-Res HDRip, и т.д.] Операция «Мертвый снег» 2 / Dod Sno 2 (Томми Виркола / Tommy Wirkola) [2014 г., ужасы, боевик, комедия, HDRip] MVO 90ytr90
1 | 0

0 | 745

19

13.08.2014 08:02

Зарубежное кино [DVDRip, Low-Res HDRip, и т.д.] Операция «Возмездие» / Operation Rogue (Брайан Клайд / Brian Clyde) [2014 г., боевик, WEB-DLRip] MVO 90ytr90
0 | 1

0 | 514

12

23.09.2014 05:24

T Зарубежное кино [DVDRip, Low-Res HDRip, и т.д.] Операция «Лавина» / Operation Avalanche (Мэтт Джонсон / Matt Johnson) [2016 г., триллер, WEB-DLRip] MVO (@MUZOBOZ@) 90ytr90
1 | 0

0 | 860

10

05.01.2017 19:35

Зарубежное кино [DVDRip, Low-Res HDRip, и т.д.] Операция «Меконг» / Mei Gong he xing dong / Operation Mekong (Данте Лам) [2016 г., боевик, приключения, HDRip] VO (BadBajo) makkol
101 | 3

0 | 509

10

19.01.2017 11:30

Зарубежное кино [DVDRip, Low-Res HDRip, и т.д.] Операция «Меконг» / Mei Gong he xing dong / Operation Mekong (Данте Лам) [2016 г., боевик, приключения, HDRip] VO (BadBajo) + Original makkol
10 | 0

0 | 526

11

19.01.2017 11:38

T Зарубежное кино [DVDRip, Low-Res HDRip, и т.д.] Операция «Хромит» / In-cheon sang-ryuk jak-jeon (Джон Х. Ли / John H. Lee) [2016 г., боевик, драма, военный, история, HDRip] MVO («КОЛОБОК») 90ytr90
5 | 0

0 | 531

7

19.01.2017 16:56

KVAN Пол:Муж

20-Фев-2013 15:36

Хороший фильм! Спасибо автору!

Kondakov Пол:Муж

25-Фев-2013 13:39

Качаю. Раз Оскара дали, значит смотреть, строго! 8)

Fraist Пол:Муж

25-Фев-2013 14:00

Kondakov
Та же история, заценим :)

90ytr90 

25-Фев-2013 14:40


Оскар, 2013 год
Победитель (3):
Лучший фильм
Лучший адаптированный сценарий
Лучший монтаж
Номинации (4):
Лучшая мужская роль второго плана (Алан Аркин)
Лучший звук
Лучший монтаж звука
Лучший саундтрек


Золотой глобус, 2013 год
Победитель (2):
Лучший фильм (драма)
Лучший режиссер (Бен Аффлек)
Номинации (3):
Лучшая мужская роль второго плана (Алан Аркин)
Лучший сценарий
Лучший саундтрек


Британская академия, 2013 год
Победитель (3):
Лучший фильм
Лучший режиссер (Бен Аффлек)
Лучший монтаж
Номинации (4):
Лучшая мужская роль (Бен Аффлек)
Лучшая мужская роль второго плана (Алан Аркин)
Лучший адаптированный сценарий
Лучший саундтрек


Сезар, 2013 год
Номинации (1):
Лучший фильм на иностранном языке

yanakuznetsova 

26-Фев-2013 14:28

Спасибо. Вы волшебник))

ag-14 

28-Фев-2013 16:38

:Yahoo!:

kym227 

28-Фев-2013 20:55

Спасибо за релиз.
Но фильм третьесортный.

Andy792 

17-Апр-2013 16:43

Фильм хороший! Спасибо!!! :good:

Яндекс.Метрика powered by Sphinx


В Н И М А Н И Е
Сайт не распространяет и не хранит электронные версии произведений, а лишь бесплатно и без коммерческой выгоды (не требуя взамен платы,
SMS и т.д.) предоставляет доступ к создаваемому пользователями каталогу ссылок на торрент-файлы, которые содержат только списки хеш-сумм.
Убедительная просьба с жалобами обращаться напрямую к пользователю, разместившему торрент файл.

Вверх