Loading...
Error

Заложница 2 / Taken 2 [Unrated Extended Cut] (Оливье Мегатон) [2012 г., боевик, триллер, криминал, BDRip] Dub + Original HQ Underverse

Статистика раздачи
Размер:  2,17 GB   |    Зарегистрирован:  3 года 9 месяцев   |    Скачан:  57 раз

Полного источника не было: 20 часов

Сидов:  0  |  0 KB/s  ]   Личеров:  0  |  0 KB/s  ]

* - сиды/пиры с внешних источников

   
 
Автор Сообщение

HQ Underverse 

12-Фев-2013 04:05

Заложница 2 / Taken 2


Год выпуска: 2012
Жанр: боевик, триллер, криминал
Страна: Франция
Режиссер: Оливье Мегатон
В ролях: Лиам Нисон, Мэгги Грэйс, Фамке Янссен, Лиленд Орсер, Джон Грайз, Д.Б. Суини, Люк Граймс, Раде Шербеджия, Кеворк Маликян, Ален Фиглаж
Сюжет фильма:
Брайану Миллсу придется расхлебывать последствия своих действий. Спасая свою дочь, он убил главаря банды, у которого — сюрприз! — есть отец по имени Мурад. Мурад жаждет отмщения и описывается как человек, отдающий приказы, но сам никогда никому не подчиняющийся. Мурад берет в заложники Миллса с супругой, и тут уже Ким Миллс нужно будет спасать своих родителей.

  • Мировая премьера: 7 сентября 2012
  • Российская премьера: 4 октября 2012, «Централ Партнершип»


Качество видео: BDRip

Продолжительность: 01:38:18
Формат: avi
Видео: XviD, 720x304, 2246 kbps
Аудио #1: русский, дублированный [лицензия, кроме расширенных мест], AC3 5.1, 448 kbps
Аудио #2: английский, оригинал, AC3 5.1, 448 kbps
Субтитры: внешние, SRT, русский, на расширенные места

Код:

General
Complete name                    : D:\Video\Movies\Releases\Taken.2.Unrated.Extended.Cut.2012.BDRip.XviD.AC3.Rus.D.Eng.O.HQ.Underverse.avi
Format                           : AVI
Format/Info                      : Audio Video Interleave
Format profile                   : OpenDML
File size                        : 2.17 GiB
Duration                         : 1h 38mn
Overall bit rate                 : 3 160 Kbps
Writing application              : VirtualDubMod 1.5.10.2 (build 2540/release)
Writing library                  : VirtualDubMod build 2540/release

Video
ID                               : 0
Format                           : MPEG-4 Visual
Format profile                   : Streaming Video@L1
Format settings, BVOP            : Yes
Format settings, QPel            : No
Format settings, GMC             : No warppoints
Format settings, Matrix          : Custom
Muxing mode                      : Packed bitstream
Codec ID                         : XVID
Codec ID/Hint                    : XviD
Duration                         : 1h 38mn
Bit rate                         : 2 246 Kbps
Width                            : 720 pixels
Height                           : 304 pixels
Display aspect ratio             : 2.35
Frame rate                       : 23.976 fps
Resolution                       : 24 bits
Colorimetry                      : 4:2:0
Scan type                        : Progressive
Bits/(Pixel*Frame)               : 0.428
Stream size                      : 1.54 GiB (71%)
Writing library                  : XviD 64

Audio #1
ID                               : 1
Format                           : AC-3
Format/Info                      : Audio Coding 3
Codec ID                         : 2000
Duration                         : 1h 38mn
Bit rate mode                    : Constant
Bit rate                         : 448 Kbps
Channel(s)                       : 6 channels
Channel positions                : Front: L C R, Surround: L R, LFE
Sampling rate                    : 48.0 KHz
Stream size                      : 315 MiB (14%)
Alignment                        : Split accross interleaves
Interleave, duration             : 42 ms (1.00 video frame)
Interleave, preload duration     : 500 ms
Title                            : Taken.2.Extended.2012.Rus.Dub.AC3.5.1.448.kbps.HQ.Underverse.ac3

Audio #2
ID                               : 2
Format                           : AC-3
Format/Info                      : Audio Coding 3
Codec ID                         : 2000
Duration                         : 1h 38mn
Bit rate mode                    : Constant
Bit rate                         : 448 Kbps
Channel(s)                       : 6 channels
Channel positions                : Front: L C R, Surround: L R, LFE
Sampling rate                    : 48.0 KHz
Stream size                      : 315 MiB (14%)
Alignment                        : Split accross interleaves
Interleave, duration             : 42 ms (1.00 video frame)
Interleave, preload duration     : 500 ms
Title                            : Taken.2.Extended.2012.Eng.O.AC3.5.1.448.kbps.HQ.Underverse.ac3

Семпл: http://multi-up.com/830145

Релиз группы:

picpicpic
Для увеличения картинки щелкните мышкой по превью

Этот торрент недоступен для скачивания без регистрации, однако доступен по публичной magnet-ссылке (источники с публичных трекеров). Перед использованием ссылки прочтите, пожалуйста Пользовательское соглашение, а также как можно дольше оставайтесь на раздаче! Для того, чтобы скачать сам торрент-файл (который видит больше источников), а также для того, чтобы поблагодарить релизера, вам необходимо зарегистрироваться. Если регистрироваться лень - вы можете также попробовать скачать релиз по нашим партнерским ссылкам ниже.

[underverse.su].t24109.torrent
Трекер: Зарегистрирован   [ 12.02.2013 04:05 ]  

Статус: проверено (by garry at 12.02.2013 10:46)
Поблагодарили: 3 человека
Тип торрента: публичный - доступные источники с открытых трекеров: 
Размер: 2,17 GB (занимает 1/2 DVDR, для записи нужно 1 болванка DVDR/RW)
 
 
Похожие темы
Форум Тема Автор Торрент Отв. Посл. сооб.
T Зарубежное кино [DVDRip, Low-Res HDRip, и т.д.] Заложница 2 / Taken 2 (Оливье Мегатон) [2012, Боевик, Триллер, Драма, BDRip] Dub [Чистый звук] + MVO Ukr (Омикрон) + Original Eng Garnett
2 | 0

1 | 1336

24

07.01.2013 09:49

Зарубежное кино [DVDRip, Low-Res HDRip, и т.д.] Заложница 2 / Taken 2 [Theatrical Cut] (Оливье Мегатон) [2012 г., Боевик, триллер, драма, криминал, HDRip] Dub 90ytr90
0 | 0

0 | 1680

100

07.02.2013 14:48

Зарубежное кино [DVDRip, Low-Res HDRip, и т.д.] Заложница 2 / Taken 2 [Unrated Extended Cut] (Оливье Мегатон) [2012 г., боевик, триллер, драма, криминал, HDRip] Dub garry
2 | 0

0 | 1792

14

26.10.2013 22:17

Зарубежное кино [DVDRip, Low-Res HDRip, и т.д.] Заложница 2 / Taken 2 [Unrated Extended Cut] (Оливье Мегатон) [2012 г., боевик, триллер, драма, криминал, BDRip-AVC] Dub + Original garry
1 | 0

0 | 944

28

26.10.2013 22:28

T Зарубежное кино [DVDRip, Low-Res HDRip, и т.д.] Заложница 3 / Taken 3 (Оливье Мегатон) [2014 г., боевик, триллер, криминал, HDTVRip] Dub [Звук с CAMRip] Паукан
0 | 0

0 | 1674

107

23.01.2015 13:16

T Зарубежное кино [DVDRip, Low-Res HDRip, и т.д.] Заложница 3 / Taken 3 (Оливье Мегатон / Olivier Megaton) [2014 г., боевик, триллер, HDTVRip] Dub (звук с CAMRip) + Original (Eng) 90ytr90
15 | 0

0 | 859

23

24.01.2015 20:56

T Зарубежное кино [DVDRip, Low-Res HDRip, и т.д.] Заложница 3 / Taken 3 (Оливье Мегатон / Olivier Megaton) [2014 г., боевик, триллер, WEB-DLRip] 90ytr90
0 | 0

0 | 787

11

28.01.2015 09:51

T Зарубежное кино [DVDRip, Low-Res HDRip, и т.д.] Заложница 3 / Taken 3 (Оливье Мегатон) [2014 г., Боевик, Триллер, HDTVRip] Dub (RUS, Чистый звук) Ведьмочка
18 | 0

0 | 1159

80

29.01.2015 14:58

T Зарубежное кино [DVDRip, Low-Res HDRip, и т.д.] Заложница 3 / Taken 3 (Оливье Мегатон / Olivier Megaton) [2014 г., боевик, триллер, HDTVRip] Dub (чистый звук) + Original (Eng) 90ytr90
1 | 0

0 | 910

41

29.01.2015 16:45

T Зарубежное кино [DVDRip, Low-Res HDRip, и т.д.] Заложница 3 / Taken 3 (Оливье Мегатон / Olivier Megaton) [2014 г., боевик, триллер, HDTVRip-AVC] Dub (чистый звук) + Original (Eng) 90ytr90
2 | 0

0 | 787

60

30.01.2015 16:11


Яндекс.Метрика powered by Sphinx


В Н И М А Н И Е
Сайт не распространяет и не хранит электронные версии произведений, а лишь бесплатно и без коммерческой выгоды (не требуя взамен платы,
SMS и т.д.) предоставляет доступ к создаваемому пользователями каталогу ссылок на торрент-файлы, которые содержат только списки хеш-сумм.
Убедительная просьба с жалобами обращаться напрямую к пользователю, разместившему торрент файл.

Вверх