Loading...
Error

Ограбление казино / Killing Them Softly (Эндрю Доминик) [2012 г., триллер, драма, криминал, BDRip] Dub HQ Underverse

Статистика раздачи
Размер:  1,45 GB   |    Зарегистрирован:  3 года 9 месяцев   |    Скачан:  39 раз
Сидов:  1  |  0 KB/s  ]   Личеров:  0  |  0 KB/s  ]

* - сиды/пиры с внешних источников

   
 
Автор Сообщение

HQ Underverse 

11-Фев-2013 19:22

Ограбление казино / Killing Them Softly


Год выпуска: 2012
Жанр: триллер, драма, криминал
Страна: США
Режиссер: Эндрю Доминик
В ролях: Брэд Питт, Ричард Дженкинс, Джеймс Гандольфини, Рэй Лиотта, Скут МакНэйри, Бен Мендельсон, Винсент Куратола, Тревор Лонг, Макс Каселла, Сэм Шепард
Сюжет фильма:
Во время подпольной игры в покер совершено ограбление, и угроза повисла над всем воровским сообществом. Воротилы мафии рассчитывают, что Джеки Коган найдет виновных. Однако, вращаясь среди нерешительных заказчиков, жуликов-ростовщиков, усталых убийц и тех, кто спланировал «дело», даже специалисту трудно сохранить контроль над ситуацией…

  • Мировая премьера: 22 мая 2012
  • Российская премьера: 18 октября 2012, «UPI»

/
Качество видео: BDRip

Продолжительность: 01:37:06
Формат: avi
Видео: XviD, 720x304, 1682 kbps
Аудио #1: русский, дублированный [лицензия], AC3 5.1, 448 kbps
Аудио #2: английский, оригинал, AC3 5.1, 448 kbps (отдельным файлом)
Субтитры #1: внешние, SRT, русский
Субтитры #2: внешние, SRT, английский

Код:

General
Complete name                    : D:\Video\Movies\Releases\Killing.Them.Softly.2012.BDRip.XviD.AC3.Rus.D.HQ.Underverse.avi
Format                           : AVI
Format/Info                      : Audio Video Interleave
File size                        : 1.45 GiB
Duration                         : 1h 37mn
Overall bit rate                 : 2 140 Kbps
Writing application              : VirtualDubMod 1.5.10.2 (build 2540/release)
Writing library                  : VirtualDubMod build 2540/release

Video
ID                               : 0
Format                           : MPEG-4 Visual
Format profile                   : Streaming Video@L1
Format settings, BVOP            : Yes
Format settings, QPel            : No
Format settings, GMC             : No warppoints
Format settings, Matrix          : Custom
Muxing mode                      : Packed bitstream
Codec ID                         : XVID
Codec ID/Hint                    : XviD
Duration                         : 1h 37mn
Bit rate                         : 1 683 Kbps
Width                            : 720 pixels
Height                           : 304 pixels
Display aspect ratio             : 2.35
Frame rate                       : 24.000 fps
Resolution                       : 24 bits
Colorimetry                      : 4:2:0
Scan type                        : Progressive
Bits/(Pixel*Frame)               : 0.320
Stream size                      : 1.14 GiB (79%)
Writing library                  : XviD 64

Audio
ID                               : 1
Format                           : AC-3
Format/Info                      : Audio Coding 3
Codec ID                         : 2000
Duration                         : 1h 37mn
Bit rate mode                    : Constant
Bit rate                         : 448 Kbps
Channel(s)                       : 6 channels
Channel positions                : Front: L C R, Surround: L R, LFE
Sampling rate                    : 48.0 KHz
Stream size                      : 311 MiB (21%)
Alignment                        : Split accross interleaves
Interleave, duration             : 42 ms (1.00 video frame)
Interleave, preload duration     : 500 ms
Title                            : Killing.Them.Softly.2012.Rus.Dub.AC3.5.1.448.kbps.HQ.Underverse.ac3

General
Complete name                    : D:\Video\Movies\Releases\Killing.Them.Softly.2012.BDRip.XviD.AC3.Rus.D.HQ.Underverse.Eng.ac3
Format                           : AC-3
Format/Info                      : Audio Coding 3
File size                        : 311 MiB
Duration                         : 1h 37mn
Overall bit rate                 : 448 Kbps

Audio
Format                           : AC-3
Format/Info                      : Audio Coding 3
Duration                         : 1h 37mn
Bit rate mode                    : Constant
Bit rate                         : 448 Kbps
Channel(s)                       : 6 channels
Channel positions                : Front: L C R, Surround: L R, LFE
Sampling rate                    : 48.0 KHz
Stream size                      : 311 MiB (100%)

Семпл: http://multi-up.com/830051

Релиз группы:

picpicpic
Для увеличения картинки щелкните мышкой по превью

Этот торрент недоступен для скачивания без регистрации, однако доступен по публичной magnet-ссылке (источники с публичных трекеров). Перед использованием ссылки прочтите, пожалуйста Пользовательское соглашение, а также как можно дольше оставайтесь на раздаче! Для того, чтобы скачать сам торрент-файл (который видит больше источников), а также для того, чтобы поблагодарить релизера, вам необходимо зарегистрироваться. Если регистрироваться лень - вы можете также попробовать скачать релиз по нашим партнерским ссылкам ниже.

[underverse.su].t24100.torrent
Трекер: Зарегистрирован   [ 11.02.2013 19:22 ]  

Статус: проверено (by garry at 11.02.2013 19:43)
Поблагодарили: 1 человек
Тип торрента: публичный - доступные источники с открытых трекеров: 
Размер: 1,45 GB (занимает 1/3 DVDR, для записи нужно 1 болванка DVDR/RW)
 
 
Похожие темы
Форум Тема Автор Торрент Отв. Посл. сооб.
Зарубежное кино [DVDRip, Low-Res HDRip, и т.д.] Ограбление по-французски / Crime Spree (Брэд Мирман) [2003 г., боевик, комедия, криминал, DVDRip] LAMA
0 | 0

0 | 896

4

04.07.2011 15:31

Зарубежное кино [DVDRip, Low-Res HDRip, и т.д.] Ограбление / Lou Lap (Фаэ Ли / Ka Wing Lee) [2015 г., комедия, мистика, триллер, HDRip] DVO (DeadSno & den904) 90ytr90
187 | 4

0 | 208

4

19.11.2016 11:45

Зарубежное кино [DVDRip, Low-Res HDRip, и т.д.] Ограбление по-итальянски / The Italian Job (Ф. Гари Грэй) [2003 г., боевик, триллер, приключения, HDRip] Dub Greshnik
8 | 0

0 | 806

12

24.07.2012 09:47

Зарубежное кино [DVDRip, Low-Res HDRip, и т.д.] Ограбление по-бельгийски / Il etait une fois, une fois (Кристиан Маррет-Пальмар) [2012 г., комедия, HDRip] MVO RG NewCinema
0 | 0

2 | 815

45

04.10.2012 03:28

Зарубежное кино [DVDRip, Low-Res HDRip, и т.д.] Ограбление казино / Killing Them Softly (Эндрю Доминик) [2012 г., триллер, криминал, DVDRip] VO (SOLDLUCK) 90ytr90
2 | 0

0 | 1414

35

07.01.2013 10:14

Зарубежное кино [DVDRip, Low-Res HDRip, и т.д.] Ограбление казино / Killing Them Softly (Эндрю Доминик) [2012 г., триллер, драма, криминал, HDRip] Dub [лицензия] RG NewCinema
7 | 0

1 | 1411

94

15.01.2013 13:01

Зарубежное кино [DVDRip, Low-Res HDRip, и т.д.] Ограбление казино / Killing Them Softly (Эндрю Доминик) [2012 г., триллер, криминал, BDRip] Dub 90ytr90
7 | 0

0 | 404

10

15.01.2013 15:01

Зарубежное кино [DVDRip, Low-Res HDRip, и т.д.] Ограбление Казино / Killing Them Softly (Эндрю Доминик) [2012, Триллер, драма, криминал, HDRip-AVC] Dub + Sub Eng + Original Eng Garnett
9 | 0

0 | 1164

25

18.01.2013 18:40

Зарубежное кино [DVDRip, Low-Res HDRip, и т.д.] Ограбление / Краденные деньги / Loot (Ражниш Такур) [2011 г., боевик, драма, комедия, криминал, DVDRip] VO (zamez) 90ytr90
2 | 0

0 | 865

2

04.05.2013 20:23

Зарубежное кино [DVDRip, Low-Res HDRip, и т.д.] Ограбление по-американски / American Heist (Сарик Андреасян / Sarik Andreasyan) [2014 г., триллер, криминал, драма, боевик, WEB-DLRip] AVO (Яковлев) 90ytr90
16 | 0

0 | 916

25

24.01.2015 16:52


Яндекс.Метрика powered by Sphinx


В Н И М А Н И Е
Сайт не распространяет и не хранит электронные версии произведений, а лишь бесплатно и без коммерческой выгоды (не требуя взамен платы,
SMS и т.д.) предоставляет доступ к создаваемому пользователями каталогу ссылок на торрент-файлы, которые содержат только списки хеш-сумм.
Убедительная просьба с жалобами обращаться напрямую к пользователю, разместившему торрент файл.

Вверх