Loading...
Error

Немой / Серии: 1-4 (4) (Александр Итыгилов мл.) [2012, Детектив, SATRip]

Статистика раздачи
Размер:  1,95 GB   |    Зарегистрирован:  3 года 9 месяцев   |    Скачан:  22 раза

Полного источника не было: 2 года

Сидов:  0  |  0 KB/s  ]   Личеров:  0  |  0 KB/s  ]

* - сиды/пиры с внешних источников

   
 
Автор Сообщение

nemos Пол:Муж

11-Фев-2013 07:34

Немой


Год выпуска: 2012
Жанр: криминал, детектив
Страна: Украина
Режиссер: Александр Итыгилов мл.
В ролях: Вячеслав Разбегаев, Леонид Громов, Михаил Тарабукин, Елена Шилова, Георгий Хостикоев, Андрей Саминин, Надежда БорисоваСаак Дурян,
Сюжет фильма:
Так сложились обстоятельства, что в морозную зимнюю ночь молодые люди Гоша, Даша и Валерий вынуждены искать спасения от холода. Поскольку у друзей нет другого выхода, они залезают в чужой дом. Здесь они оказываются под дулом ружья странного человека, которого принимают за хозяина дома. Человек молчит, словно немой, и не снимает маску волка с лица. «Хозяин» проявляет терпимость и гостеприимство, он угощает незваных гостей коньяком и чаем, помогает им завести заглохшую машину и вытащить ее из сугроба. Но когда гости засыпают, немой забирает из потайного сейфа крупную сумму денег, снимает со стены самую ценную картину, а сам прячется в потайной комнате…


Качество видео: SatRip

Продолжительность: 00:45:02серия
Формат: AVI
Видео: XviD, 720x400, 1414 kbps
Аудио: русский, MP3 2.0, 128 kbps

Код:

E:\С underverse-3 Фильмы\Nemoj.2012.XviD.SATRip.SCTeam\Nemoj.(4.serija.iz.4).2012.XviD.SATRip.SCTeam.avi
   General
      Complete name : E:\С underverse-3 Фильмы\Nemoj.2012.XviD.SATRip.SCTeam\Nemoj.(4.serija.iz.4).2012.XviD.SATRip.SCTeam.avi
      Format : AVI
      Format/Info : Audio Video Interleave
      File size : 500 MiB
      Duration : 45mn 2s
      Overall bit rate : 1 552 Kbps
      Writing application : VirtualDubMod 1.5.10.2 (build 2540/release)
      Writing library : VirtualDubMod build 2540/release
   Video #0
      ID : 0
      Format : MPEG-4 Visual
      Format profile : Advanced Simple@L5
      Format settings, BVOP : 2
      Format settings, QPel : No
      Format settings, GMC : No warppoints
      Format settings, Matrix : Default (MPEG)
      Codec ID : XVID
      Codec ID/Hint : XviD
      Duration : 45mn 2s
      Bit rate : 1 414 Kbps
      Width : 720 pixels
      Height : 400 pixels
      Display aspect ratio : 16:9
      Frame rate : 25.000 fps
      Color space : YUV
      Chroma subsampling : 4:2:0
      Bit depth : 8 bits
      Scan type : Progressive
      Compression mode : Lossy
      Bits/(Pixel*Frame) : 0.196
      Stream size : 456 MiB (91%)
      Writing library : XviD 65
   Audio #1
      ID : 1
      Format : MPEG Audio
      Format version : Version 1
      Format profile : Layer 3
      Mode : Joint stereo
      Mode extension : MS Stereo
      Codec ID : 55
      Codec ID/Hint : MP3
      Duration : 45mn 2s
      Bit rate mode : Constant
      Bit rate : 128 Kbps
      Channel(s) : 2 channels
      Sampling rate : 48.0 KHz
      Compression mode : Lossy
      Stream size : 41.2 MiB (8%)
      Alignment : Aligned on interleaves
      Interleave, duration : 40 ms (1.00 video frame)
      Interleave, preload duration : 504 ms
Семпл: http://multi-up.com/829786

picpicpicpicpicpicpicpicpicpic
Для увеличения картинки щелкните мышкой по превью
Сериал который был выложен и зарегистрирован более двух месяцев назад буду раздавать с 23.00ч до 06.00ч утра ( вина в этом немоя, а пользователей которые неподдерживают раздачу)

Этот торрент недоступен для скачивания без регистрации, однако доступен по публичной magnet-ссылке (источники с публичных трекеров). Перед использованием ссылки прочтите, пожалуйста Пользовательское соглашение, а также как можно дольше оставайтесь на раздаче! Для того, чтобы скачать сам торрент-файл (который видит больше источников), а также для того, чтобы поблагодарить релизера, вам необходимо зарегистрироваться. Если регистрироваться лень - вы можете также попробовать скачать релиз по нашим партнерским ссылкам ниже.

[underverse.su].t24077.torrent
Трекер: Зарегистрирован   [ 11.02.2013 07:34 ]  

Статус: проверено (by Чертёнок at 11.02.2013 12:20)
Поблагодарили: 3 человека
Тип торрента: публичный - доступные источники с открытых трекеров: 
Размер: 1,95 GB (занимает 0,45 DVDR, для записи нужно 1 болванка DVDR/RW)
 
 

Яндекс.Метрика powered by Sphinx


В Н И М А Н И Е
Сайт не распространяет и не хранит электронные версии произведений, а лишь бесплатно и без коммерческой выгоды (не требуя взамен платы,
SMS и т.д.) предоставляет доступ к создаваемому пользователями каталогу ссылок на торрент-файлы, которые содержат только списки хеш-сумм.
Убедительная просьба с жалобами обращаться напрямую к пользователю, разместившему торрент файл.

Вверх