Loading...
Error

Война миров / War of the Worlds (Стивен Спилберг) [ 2005 г., фантастика, боевик, триллер, драма, приключения, BDRip-AVC] Dub

Статистика раздачи
Размер:  4,31 GB   |    Зарегистрирован:  3 года 9 месяцев   |    Скачан:  23 раза

Полного источника не было: 5 месяцев 1 день

Сидов:  0  |  0 KB/s  ]   Личеров:  0  |  0 KB/s  ]

* - сиды/пиры с внешних источников

   
 
Автор Сообщение

Чертёнок Пол:Муж

10-Фев-2013 14:41

Война миров / War of the Worlds
Год выпуска: 2005
Жанр: фантастика, боевик, триллер, драма, приключения
Страна: США
Режиссер: Стивен Спилберг
В ролях: Том Круз, Дакота Фаннинг, Миранда Отто, Джастин Чэтвин, Тим Роббинс, Рик Гонзалез, Юл Васкез, Ленни Венито, Лиза Энн Уолтер, Энн Робинсон, Джин Бэрри, Дэвид Алан Баш, Роз Абрамс, Майкл Браунли, Камиллия Сейнс, Марлон Янг, Джон Эддинс, Питер Герети, Дэвид Харбор, Мигель Антонио Феррер
Сюжет фильма:
Никто не поверил бы в начале 21 столетия, что за всем происходящим на Земле зорко и внимательно следят существа более развитые, чем человек; что в то время, как люди занимались своими делами, их исследовали и изучали.
С бесконечным самодовольством сновали люди по всему земному шару, занятые своими делишками, уверенные в своей власти над материей. А между тем через бездну пространства на Землю смотрели глазами полными зависти, существа с высокоразвитым, холодным, бесчувственным интеллектом, и медленно, но верно вырабатывали свои враждебные нам планы…


Качество видео: BDRip-AVC

Продолжительность: 01:51:02
Формат: MKV
Видео: MPEG-4 AVC, 1520x824, 4656 kbps
Аудио: русский, дублированный, DTS 5.1, 755kbps

Код:

Format : Matroska
Format version : Version 2
File size : 4.31 GiB
Duration : 1h 51mn
Overall bit rate : 5 551 Kbps
Encoded date : UTC 2012-09-21 17:02:03
Writing application : mkvmerge v5.6.0 ('Kenya Kane') built on May 27 2012 16:44:04
Writing library : libebml v1.2.3 + libmatroska v1.3.0

Video
ID : 1
Format : AVC
Format/Info : Advanced Video Codec
Format profile : High@L4.1
Format settings, CABAC : Yes
Format settings, ReFrames : 6 frames
Codec ID : V_MPEG4/ISO/AVC
Duration : 1h 51mn
Bit rate : 4 656 Kbps
Width : 1 520 pixels
Height : 824 pixels
Display aspect ratio : 1.85:1
Frame rate : 23.976 fps
Color space : YUV
Chroma subsampling : 4:2:0
Bit depth : 8 bits
Scan type : Progressive
Bits/(Pixel*Frame) : 0.155
Stream size : 3.63 GiB (84%)
Writing library : x264 core 124 r2197 69a0443
Encoding settings : cabac=1 / ref=6 / deblock=1:0:0 / analyse=0x3:0x133 / me=umh / subme=10 / psy=1 / psy_rd=1.00:0.00 / mixed_ref=1 / me_range=32 / chroma_me=1 / trellis=2 / 8x8dct=1 / cqm=0 / deadzone=21,11 / fast_pskip=1 / chroma_qp_offset=-2 / threads=9 / sliced_threads=0 / nr=0 / decimate=1 / interlaced=0 / bluray_compat=0 / constrained_intra=0 / bframes=8 / b_pyramid=2 / b_adapt=2 / b_bias=0 / direct=3 / weightb=1 / open_gop=0 / weightp=2 / keyint=250 / keyint_min=23 / scenecut=40 / intra_refresh=0 / rc_lookahead=60 / rc=2pass / mbtree=1 / bitrate=4656 / ratetol=1.0 / qcomp=0.60 / qpmin=0 / qpmax=69 / qpstep=4 / cplxblur=20.0 / qblur=0.5 / ip_ratio=1.40 / aq=1:1.00
Language : English
Default : Yes
Forced : No

Audio
ID : 2
Format : DTS
Format/Info : Digital Theater Systems
Codec ID : A_DTS
Duration : 1h 51mn
Bit rate mode : Constant
Bit rate : 755 Kbps
Channel(s) : 6 channels
Channel positions : Front: L C R, Side: L R, LFE
Sampling rate : 48.0 KHz
Bit depth : 24 bits
Compression mode : Lossy
Stream size : 599 MiB (14%)
Default : Yes
Forced : No
picpicpicpicpicpic
Для увеличения картинки щелкните мышкой по превью

Этот торрент недоступен для скачивания без регистрации, однако доступен по публичной magnet-ссылке (источники с публичных трекеров). Перед использованием ссылки прочтите, пожалуйста Пользовательское соглашение, а также как можно дольше оставайтесь на раздаче! Для того, чтобы скачать сам торрент-файл (который видит больше источников), а также для того, чтобы поблагодарить релизера, вам необходимо зарегистрироваться. Если регистрироваться лень - вы можете также попробовать скачать релиз по нашим партнерским ссылкам ниже.

[underverse.su].t24059.torrent
Трекер: Зарегистрирован   [ 10.02.2013 14:41 ]  

Статус: проверено (by Чертёнок at 10.02.2013 14:45)
Поблагодарили: 2 человека
Тип торрента: публичный - доступные источники с открытых трекеров: 
Размер: 4,31 GB (занимает 0,98 DVDR, для записи нужно 1 болванка DVDR/RW)
 
 
Похожие темы
Форум Тема Автор Торрент Отв. Посл. сооб.
Зарубежное кино [DVDRip, Low-Res HDRip, и т.д.] Война миров Z / World War Z (Марк Форстер / Marc Forster) [2013 г., ужасы, фантастика, боевик, триллер, драма, BDRip-AVC] VO + Original Чертёнок
46 | 1

0 | 736

35

06.09.2013 06:51

Зарубежное кино [DVDRip, Low-Res HDRip, и т.д.] Война миров Z / World War Z (Марк Форстер / Marc Forster) [2013 г., ужасы, фантастика, боевик, HDRip] VO (Andi) Чертёнок
23 | 0

0 | 3404

329

06.09.2013 06:58

Зарубежное кино [DVDRip, Low-Res HDRip, и т.д.] Война миров Z / World War Z (Марк Форстер) [2013 г., ужасы, фантастика, боевик, триллер, драма, BDRip] [Theatrical Cut] Dub + Original 90ytr90
8 | 0

1 | 1760

78

23.08.2014 17:34

Зарубежное кино [DVDRip, Low-Res HDRip, и т.д.] Война миров Z / World War Z (Марк Форстер / Marc Forster) [2013 г., ужасы, фантастика, боевик, триллер, приключения, BDRip] [Extended Cut] Dub 90ytr90
2 | 0

0 | 1531

46

29.11.2013 15:18

Зарубежное кино [DVDRip, Low-Res HDRip, и т.д.] Война миров / War of the Worlds (Стивен Спилберг / Steven Spielberg) [2005 г., фантастика, триллер, драма, приключения, HDRip] Dub + Original (Eng) + Sub (Rus, Eng) 90ytr90
5 | 0

0 | 286

4

31.01.2015 21:51

Зарубежное кино [DVDRip, Low-Res HDRip, и т.д.] Война миров / War of the Worlds (Стивен Спилберг / Steven Spielberg) [2005 г., фантастика, триллер, драма, приключения, HDRip] Dub 90ytr90
98 | 1

0 | 333

8

31.01.2015 21:52

Зарубежное кино [DVDRip, Low-Res HDRip, и т.д.] Война миров / War of the Worlds (Стивен Спилберг / Steven Spielberg) [2005 г., фантастика, триллер, драма, приключения, BDRip-AVC] Dub (С.Р.И.) + DVO (Tycoon) + AVO (А.Гаврилов) + Original (Eng)+ Sub... 90ytr90
0 | 1

0 | 779

3

31.01.2015 21:52

Зарубежное кино HQ Война миров Z / World War Z (Марк Форстер) [2013 г., ужасы, фантастика, боевик, триллер, драма, BDRip] Dub + Original + Sub (Eng) HQ Underverse HQ Underverse
0 | 0

2 | 2630

161

23.09.2013 17:50

Зарубежное кино [HDDVDRip / BDRip / WEB-DL / HDTV 1080/720р] Война миров / War of the Worlds (Стивен Спилберг) [2005 г., фантастика, боевик, триллер, драма, приключения, BDRip 1080p] BartSimpson
5 | 0

2 | 2032

16

05.09.2013 11:24

Зарубежное кино [HDDVDRip / BDRip / WEB-DL / HDTV 1080/720р] Война миров Z / World War Z (Марк Форстер / Marc Forster) [2013 г., ужасы, фантастика, боевик, триллер, драма, BDRip 1080p] [Theatrical Cut] Dub + Original 90ytr90
18 | 1

0 | 1502

56

13.09.2013 19:58


Яндекс.Метрика powered by Sphinx


В Н И М А Н И Е
Сайт не распространяет и не хранит электронные версии произведений, а лишь бесплатно и без коммерческой выгоды (не требуя взамен платы,
SMS и т.д.) предоставляет доступ к создаваемому пользователями каталогу ссылок на торрент-файлы, которые содержат только списки хеш-сумм.
Убедительная просьба с жалобами обращаться напрямую к пользователю, разместившему торрент файл.

Вверх