Loading...
Error

Неадекватные люди (Роман Каримов) [2010 г., драма, мелодрама, комедия, HDRip]

Статистика раздачи
Размер:  745 MB   |    Зарегистрирован:  3 года 9 месяцев   |    Скачан:  13 раз

Полного источника не было: 3 года

Сидов:  0  |  0 KB/s  ]   Личеров:  0  |  0 KB/s  ]

* - сиды/пиры с внешних источников

   
 
Автор Сообщение

aleksndr Пол:Муж

08-Фев-2013 16:18

Неадекватные люди


Год выпуска: 2010
Жанр: драма, мелодрама, комедия
Страна: Россия
Режиссер: Роман Каримов
В ролях: Илья Любимов, Ингрид Олеринская, Евгений Цыганов, Юлия Такшина, Артем Душкин, Полина Иосилевич, Марина Зайцева, Анастасия Федоркова, Назар Ас-Самаррай, Анна Колобаева
Сюжет фильма:
Тридцатилетний молодой человек Виталий, убегая от надоедливых проблем и душевного дискомфорта, бросает провинциальный городок Серпухов и переезжает в Москву, надеясь именно здесь найти гармонию с собственным «Я». Но к состоянию гармонии ему оказывается слишком далеко, ведь впоследствии возникает очень много вопросов связанных с его новой соседкой Кристиной, которой также не очень везет в жизни и которая пытается «сделать» из него действительно крутого мена, а также начальница, желающая затащить его в кровать. С каждым днем он все больше убеждается в неадекватности подобных людей, которые буквально сорвались с цепи. Но что, если проблема не только в них?

  • Российская премьера: 13 января 2011, «Парадиз»


Качество видео: HDRip

Продолжительность: 01:46:15
Формат: AVI
Видео: 624x352 (1.77:1), 23.976 fps, XviD build 65 ~843 kbps avg, 0.16 bit/pixel
Аудио: русский, оригинал, 48 kHz, MPEG Layer 3, 2 ch, 128.00 kbps

Код:

Общее
Полное имя : Neadekvatnye.Ljudi.2010.HDRip.745.youtracker.avi
Формат : AVI
Формат/Информация : Audio Video Interleave
Размер файла : 745 Мбайт
Продолжительность : 1 ч. 46 м.
Общий поток : 981 Кбит/сек
Программа кодирования : VirtualDubMod 1.5.10.3 | www.virtualdub-fr.org || (build 2550/release)
Библиотека кодирования : VirtualDubMod build 2550/release

Видео
Идентификатор : 0
Формат : MPEG-4 Visual
Профиль формата : Advanced Simple@L5
Параметр BVOP формата : 1
Параметр QPel формата : Нет
Параметр GMC формата : Без точки перехода
Параметр матрицы формата : Выборочная
Идентификатор кодека : XVID
Идентификатор кодека/Подсказка : XviD
Продолжительность : 1 ч. 46 м.
Битрейт : 844 Кбит/сек
Ширина : 624 пикселя
Высота : 352 пикселя
Соотношение сторон : 16:9
Частота кадров : 23,976 кадра/сек
Цветовое пространство : YUV
Субдискретизация насыщенности : 4:2:0
Битовая глубина : 8 бит
Тип развёртки : Прогрессивная
Метод сжатия : С потерями
Бит/(Пиксели*Кадры) : 0.160
Размер потока : 641 Мбайт (86%)
Библиотека кодирования : XviD 65

Аудио
Идентификатор : 1
Формат : MPEG Audio
Версия формата : Version 1
Профиль формата : Layer 3
Идентификатор кодека : 55
Идентификатор кодека/Подсказка : MP3
Продолжительность : 1 ч. 45 м.
Вид битрейта : Постоянный
Битрейт : 128 Кбит/сек
Каналы : 2 канала
Частота : 48,0 КГц
Метод сжатия : С потерями
Размер потока : 97,0 Мбайт (13%)
Выравнивание : Соединение по промежуткам
Продолжительность промежутка : 42 мс. (1,00 видеокадр)
Время предзагрузки промежутка : 504 мс.
Библиотека кодирования : LAME3.99r
Настройки программы : -m s -V 4 -q 0 -lowpass 17 -b 128
Семпл: http://multi-up.com/828656

picpicpic
Для увеличения картинки щелкните мышкой по превью

Этот торрент недоступен для скачивания без регистрации, однако доступен по публичной magnet-ссылке (источники с публичных трекеров). Перед использованием ссылки прочтите, пожалуйста Пользовательское соглашение, а также как можно дольше оставайтесь на раздаче! Для того, чтобы скачать сам торрент-файл (который видит больше источников), а также для того, чтобы поблагодарить релизера, вам необходимо зарегистрироваться. Если регистрироваться лень - вы можете также попробовать скачать релиз по нашим партнерским ссылкам ниже.

[underverse.su].t23993.torrent
Трекер: Зарегистрирован   [ 08.02.2013 16:18 ]  

Статус: проверено (by Чертёнок at 08.02.2013 16:53)
Поблагодарили: пока никто не поблагодарил...
Тип торрента: публичный - доступные источники с открытых трекеров: 
Размер: 745 MB (занимает 0,17 DVDR, для записи нужно 1 болванка DVDR/RW)
 
 
Похожие темы
Форум Тема Автор Торрент Отв. Посл. сооб.
Наше кино [DVDRip, Low-Res HDRip, и т.д.] Неадекватные люди (Роман Каримов) [2010 г., мелодрама, комедия, DVDRip] STALKOID
2 | 0

8 | 2067

44

21.09.2011 06:16

Архив Неадекватные люди (Роман Каримов) [2010 г., комедия, DVD-5] andrej-ku
0 | 0

1 | 792

2

05.11.2011 14:45


Яндекс.Метрика powered by Sphinx


В Н И М А Н И Е
Сайт не распространяет и не хранит электронные версии произведений, а лишь бесплатно и без коммерческой выгоды (не требуя взамен платы,
SMS и т.д.) предоставляет доступ к создаваемому пользователями каталогу ссылок на торрент-файлы, которые содержат только списки хеш-сумм.
Убедительная просьба с жалобами обращаться напрямую к пользователю, разместившему торрент файл.

Вверх