Loading...
Error

Близкий враг (Александр Атанесян) [2010 г., драма, криминал, DVDRip]

Статистика раздачи
Размер:  745 MB   |    Зарегистрирован:  3 года 10 месяцев   |    Скачан:  9 раз

Полного источника не было: 3 года

Сидов:  0  |  0 KB/s  ]   Личеров:  0  |  0 KB/s  ]

* - сиды/пиры с внешних источников

   
 
Автор Сообщение

aleksndr Пол:Муж

08-Фев-2013 15:51

Близкий враг


Год выпуска: 2010
Жанр: драма, криминал
Страна: Россия
Режиссер: Александр Атанесян
В ролях: Евгения Трофимова, Сергей Греков, Дмитрий Дюжев, Андрей Панин, Николай Добрынин, Нелли Уварова, Рамиль Сабитов, Егор Пазенко, Александр Головин, Валерия Синельникова
Сюжет фильма:
Жизнь молодой счастливой девушки в одночасье превращается в руины. Ее горячо любимого мужа жестоко убивают какие-то подонки. Горе поселяется в душе героини. Что делать и как жить дальше? Эти вопросы она задает себе постоянно. Но в какой-то момент ее вдруг одолевает непреодолимая жажда мести. Девушка решает найти убийц и наказать их.

  • Мировая премьера: 21 октября 2010
  • Российская премьера: 21 октября 2010, «WDSSPR»


Качество видео: DVDRip

Продолжительность: 01:25:07
Формат: AVI
Видео: 688x288 (2.39:1), 25 fps, XviD build 65 ~1085 kbps avg, 0.22 bit/pixel
Аудио: русский, оригинал, 48 kHz, MPEG Layer 3, 2 ch, 128.00 kbps

Код:

Общее
Полное имя : Blizkij.Vrag.2010.DVDRip.745.youtracker.avi
Формат : AVI
Формат/Информация : Audio Video Interleave
Размер файла : 745 Мбайт
Продолжительность : 1 ч. 25 м.
Общий поток : 1223 Кбит/сек
Программа кодирования : VirtualDubMod 1.5.10.3 | www.virtualdub-fr.org || (build 2550/release)
Библиотека кодирования : VirtualDubMod build 2550/release

Видео
Идентификатор : 0
Формат : MPEG-4 Visual
Профиль формата : Advanced Simple@L5
Параметр BVOP формата : 1
Параметр QPel формата : Нет
Параметр GMC формата : Без точки перехода
Параметр матрицы формата : Выборочная
Идентификатор кодека : XVID
Идентификатор кодека/Подсказка : XviD
Продолжительность : 1 ч. 25 м.
Битрейт : 1085 Кбит/сек
Ширина : 688 пикселей
Высота : 288 пикселей
Соотношение сторон : 2,40:1
Частота кадров : 25,000 кадров/сек
Цветовое пространство : YUV
Субдискретизация насыщенности : 4:2:0
Битовая глубина : 8 бит
Тип развёртки : Прогрессивная
Метод сжатия : С потерями
Бит/(Пиксели*Кадры) : 0.219
Размер потока : 661 Мбайт (89%)
Библиотека кодирования : XviD 65

Аудио
Идентификатор : 1
Формат : MPEG Audio
Версия формата : Version 1
Профиль формата : Layer 3
Идентификатор кодека : 55
Идентификатор кодека/Подсказка : MP3
Продолжительность : 1 ч. 25 м.
Вид битрейта : Постоянный
Битрейт : 128 Кбит/сек
Каналы : 2 канала
Частота : 48,0 КГц
Метод сжатия : С потерями
Размер потока : 77,9 Мбайт (10%)
Выравнивание : Соединение по промежуткам
Продолжительность промежутка : 40 мс. (1,00 видеокадр)
Время предзагрузки промежутка : 504 мс.
Библиотека кодирования : LAME3.99r
Настройки программы : -m s -V 4 -q 0 -lowpass 17 -b 128
Семпл: http://multi-up.com/828645

picpicpic
Для увеличения картинки щелкните мышкой по превью

Этот торрент недоступен для скачивания без регистрации, однако доступен по публичной magnet-ссылке (источники с публичных трекеров). Перед использованием ссылки прочтите, пожалуйста Пользовательское соглашение, а также как можно дольше оставайтесь на раздаче! Для того, чтобы скачать сам торрент-файл (который видит больше источников), а также для того, чтобы поблагодарить релизера, вам необходимо зарегистрироваться. Если регистрироваться лень - вы можете также попробовать скачать релиз по нашим партнерским ссылкам ниже.

[underverse.su].t23990.torrent
Трекер: Зарегистрирован   [ 08.02.2013 15:51 ]  

Статус: проверено (by Чертёнок at 08.02.2013 16:06)
Поблагодарили: пока никто не поблагодарил...
Тип торрента: публичный - доступные источники с открытых трекеров: 
Размер: 745 MB (занимает 0,17 DVDR, для записи нужно 1 болванка DVDR/RW)
 
 
Похожие темы
Форум Тема Автор Торрент Отв. Посл. сооб.
Зарубежное кино [DVDRip, Low-Res HDRip, и т.д.] Близкий враг / Дорогой враг / Dual Crisis / Dear Enemy / Qin Mi Di Ren (Сю Цзинлэй) [2011 г., Мелодрама, Комедия, BDRip-AVC] DVO (RUS, GREEN TEA & AniPower) + Original (CHN) Ведьмочка
0 | 0

0 | 517

6

03.09.2014 05:31

Зарубежное кино [HDDVDRip / BDRip / WEB-DL / HDTV 1080/720р] Близкий враг / Дорогой враг / Dual Crisis / Dear Enemy / Qin Mi Di Ren (Сю Цзинлэй) [2011 г., Мелодрама, Комедия, BDRip 1080p] DVO (RUS, GREEN TEA & AniPower) + Original (CHN) Ведьмочка
2 | 1

0 | 459

0

02.09.2014 15:30

Зарубежное кино [HDDVDRip / BDRip / WEB-DL / HDTV 1080/720р] Близкий враг / Дорогой враг / Dual Crisis / Dear Enemy / Qin Mi Di Ren (Сю Цзинлэй) [2011 г., Мелодрама, Комедия, BDRip 720p] DVO (RUS, GREEN TEA & AniPower) + Original (CHN) Ведьмочка
1 | 1

0 | 497

1

03.09.2014 05:26

Архив Близкий враг (Александр Атанесян) [2010 г., драма, криминальный, DVD-9] SKRiptus
0 | 0

1 | 683

1

16.06.2011 08:09



Последний раз редактировалось: aleksndr (09.02.2013 15:48), всего редактировалось 1 раз

aleksndr Пол:Муж

08-Фев-2013 15:59

http://underverse.su/viewtopic.php?t=13797

Цитата:

Качество видео: CAMRip

Яндекс.Метрика powered by Sphinx


В Н И М А Н И Е
Сайт не распространяет и не хранит электронные версии произведений, а лишь бесплатно и без коммерческой выгоды (не требуя взамен платы,
SMS и т.д.) предоставляет доступ к создаваемому пользователями каталогу ссылок на торрент-файлы, которые содержат только списки хеш-сумм.
Убедительная просьба с жалобами обращаться напрямую к пользователю, разместившему торрент файл.

Вверх