Loading...
Error

Одинокий волк / Серии: 1-24 (24) (Григорий Любомиров, Александр Кулямин) [2012, Криминал, боевик, детектив, SATRip]

Статистика раздачи
Размер:  12,58 GB   |    Зарегистрирован:  3 года 9 месяцев   |    Скачан:  17 раз

Полного источника не было: 9 месяцев

Сидов:  0  |  0 KB/s  ]   Личеров:  0  |  0 KB/s  ]

* - сиды/пиры с внешних источников

   
 
Автор Сообщение

nemos Пол:Муж

07-Фев-2013 09:07


Год выпуска: 2012
Жанр: криминал, детектив
Страна: Россия
Режиссер: Григорий Любомиров, Александр Кулямин
В ролях: Геннадий Шныптев, Дмитрий Митюрич, Владимир Лысенко, Иннокентий Тарабара, Елена Олькина, Карина Реука, Антон Никушин, Евгений Смирнов, Юлия Галина, Михаил Люлинецкий
Сюжет фильма:
Трудно жить с человеком, у которого чрезвычайно сложный характер, которого никто не может сломать и ущемить, который ни перед каким предлогом не уступает и не идет даже на самые небольшие поступки. В народе подобных людей называют волками. Однако как часто случается, их никто не окружаетособо, поскольку они одинокие волки. Это история о сильном, мужественно и временами сложном характере.


Качество видео: SatRip

Продолжительность: 00:42:43 серия
Формат: AVI
Видео: XviD, 720x400, 1607 kbps
Аудио: русский, MP3 2.0, 192 kbps

Код:

E:\С underverse-3 Фильмы\Одинокий волк\Odinokij.volk.24.SATRip.avi
   General
      Complete name : E:\С underverse-3 Фильмы\Одинокий волк\Odinokij.volk.24.SATRip.avi
      Format : AVI
      Format/Info : Audio Video Interleave
      File size : 553 MiB
      Duration : 42mn 43s
      Overall bit rate : 1 809 Kbps
      Writing application : VirtualDubMod 1.5.10.3 | www.virtualdub-fr.org || (build 2550/release)
      Writing library : VirtualDubMod build 2550/release
   Video #0
      ID : 0
      Format : MPEG-4 Visual
      Format profile : Advanced Simple@L5
      Format settings, BVOP : 1
      Format settings, QPel : No
      Format settings, GMC : No warppoints
      Format settings, Matrix : Default (H.263)
      Codec ID : XVID
      Codec ID/Hint : XviD
      Duration : 42mn 43s
      Bit rate : 1 607 Kbps
      Width : 720 pixels
      Height : 400 pixels
      Display aspect ratio : 16:9
      Frame rate : 25.000 fps
      Color space : YUV
      Chroma subsampling : 4:2:0
      Bit depth : 8 bits
      Scan type : Progressive
      Compression mode : Lossy
      Bits/(Pixel*Frame) : 0.223
      Stream size : 491 MiB (89%)
      Writing library : XviD 1.2.1 (UTC 2008-12-04)
   Audio #1
      ID : 1
      Format : MPEG Audio
      Format version : Version 1
      Format profile : Layer 3
      Codec ID : 55
      Codec ID/Hint : MP3
      Duration : 42mn 43s
      Bit rate mode : Constant
      Bit rate : 192 Kbps
      Channel(s) : 2 channels
      Sampling rate : 48.0 KHz
      Compression mode : Lossy
      Stream size : 58.7 MiB (11%)
      Alignment : Aligned on interleaves
      Interleave, duration : 40 ms (1.00 video frame)
      Interleave, preload duration : 504 ms
      Writing library : LAME3.98r
      Encoding settings : -m s -V 4 -q 2 -lowpass 18.6 -b 192
Семпл: http://multi-up.com/828036

picpicpicpicpicpicpicpicpicpicpicpicpicpicpic
Для увеличения картинки щелкните мышкой по превью
Сериал который был выложен и зарегистрирован более двух месяцев назад буду раздавать с 23.00ч до 06.00ч утра ( вина в этом немоя, а пользователей которые неподдерживают раздачу)

Этот торрент недоступен для скачивания без регистрации, однако доступен по публичной magnet-ссылке (источники с публичных трекеров). Перед использованием ссылки прочтите, пожалуйста Пользовательское соглашение, а также как можно дольше оставайтесь на раздаче! Для того, чтобы скачать сам торрент-файл (который видит больше источников), а также для того, чтобы поблагодарить релизера, вам необходимо зарегистрироваться. Если регистрироваться лень - вы можете также попробовать скачать релиз по нашим партнерским ссылкам ниже.

[underverse.su].t24155.torrent
Трекер: Зарегистрирован   [ 14.02.2013 01:35 ]  

Статус: проверено (by garry at 14.02.2013 07:29)
Поблагодарили: 1 человек
Тип торрента: публичный - доступные источники с открытых трекеров: 
Размер: 12,58 GB (занимает 2,87 DVDR, для записи нужно 3 болванки DVDR/RW)
 
 
Похожие темы
Форум Тема Автор Торрент Отв. Посл. сооб.
Зарубежное кино [DVD / HDDVD / BD / Remux] Одинокий волк МакКуэйд / Lone Wolf McQuade (Стив Карвер / Steve Carver) [1983 г., боевик, триллер, драма, криминал, BDRemux 1080p] MVOx4 + AVOx6 (Сербин, Гаврилов, Горчаков, Володарский, Товбин,... uzi2009
4 | 0

1 | 717

6

24.10.2015 10:50

Зарубежное кино [HDDVDRip / BDRip / WEB-DL / HDTV 1080/720р] Одинокий волк МакКуэйд / Lone Wolf McQuade (Стив Карвер) [1983 г., Боевик, триллер, драма, криминал, BDRip 1080p] MVO + AVO техно1
1 | 0

0 | 1220

8

09.11.2012 21:51



Последний раз редактировалось: nemos (06.11.2014 12:30), всего редактировалось 9 раз(а)

nemos Пол:Муж

07-Фев-2013 20:33

Обновлен

nemos Пол:Муж

09-Фев-2013 08:22

Торрент обновлен(18)

nemos Пол:Муж

12-Фев-2013 00:56

Торрент обновлен(20)

nemos Пол:Муж

14-Фев-2013 01:37

Торрент обновлен(24)

Яндекс.Метрика powered by Sphinx


В Н И М А Н И Е
Сайт не распространяет и не хранит электронные версии произведений, а лишь бесплатно и без коммерческой выгоды (не требуя взамен платы,
SMS и т.д.) предоставляет доступ к создаваемому пользователями каталогу ссылок на торрент-файлы, которые содержат только списки хеш-сумм.
Убедительная просьба с жалобами обращаться напрямую к пользователю, разместившему торрент файл.

Вверх