Loading...
Error

Гром / Серии: 1-8 (8) (Юрий Кузьменко) [2013, Детектив, криминал, SATRip]

Статистика раздачи
Размер:  4,08 GB   |    Зарегистрирован:  3 года 10 месяцев   |    Скачан:  10 раз

Полного источника не было: 2 года

Сидов:  0  |  0 KB/s  ]   Личеров:  0  |  0 KB/s  ]

* - сиды/пиры с внешних источников

   
 
Автор Сообщение

nemos Пол:Муж

06-Фев-2013 16:50


Год выпуска: 2013
Жанр: криминал, детектив
Страна: Россия
Режиссер: Юрий Кузьменко
В ролях: Ирина Баринова, Антон Макарский, Андрей Егоров, Дарья Чаруша, Екатерина Маликова, Егор Баринов, Вадим Андреев, Владислав Ветров, Елена Мольченко (Фатюшина), Евгений Березовский, Иван Николаев, Сергей Шеховцов, Алексей Варущенко, Роман Матюнин, Дмитрий Собачкин, Юлия Тельпухова
Капитан Прохоров — тот самый человек, про которых говорят, что они «соль земли». Он не умеет быть равнодушным к несправедливости и никогда не проходит мимо беззакония и лжи. Уникальность истории состоит в том, что Прохорову помогает Гром — преданный конь, который благодаря уникальному чутью и сообразительности, не раз спасает жизнь хозяина и помогает раскрывать запутанные дела. Прохоров и Гром — идеальный тандем. Они разоблачают похитителей икон, раскрывают дело с киднеппингом, сажают в тюрьму опасных преступников и просто помогают людям.


Качество видео: SatRip

Продолжительность: 00:42:26 серия
Формат: AVI
Видео: DivX, 704 х 400, 1 600 kbps
Аудио: русский, MP3 2.0, 128 kbps

Код:

E:\С underverse-3 Фильмы\Гром 2013.SATRip\Гром.08.avi
   General
      Complete name : E:\С underverse-3 Фильмы\Гром 2013.SATRip\Гром.08.avi
      Format : AVI
      Format/Info : Audio Video Interleave
      File size : 527 MiB
      Duration : 42mn 26s
      Overall bit rate : 1 737 Kbps
      Writing library : VirtualDub-MPEG2 build 24600/release
   Video #0
      ID : 0
      Format : MPEG-4 Visual
      Format profile : Simple@L3
      Format settings, BVOP : No
      Format settings, QPel : No
      Format settings, GMC : No warppoints
      Format settings, Matrix : Default (H.263)
      Codec ID : DX50
      Codec ID/Hint : DivX 5
      Duration : 42mn 26s
      Bit rate : 1 600 Kbps
      Width : 704 pixels
      Height : 400 pixels
      Display aspect ratio : 16:9
      Frame rate : 25.000 fps
      Color space : YUV
      Chroma subsampling : 4:2:0
      Bit depth : 8 bits
      Scan type : Progressive
      Compression mode : Lossy
      Bits/(Pixel*Frame) : 0.227
      Stream size : 486 MiB (92%)
      Writing library : XviD 1.2.1 (UTC 2008-12-04)
   Audio #1
      ID : 1
      Format : MPEG Audio
      Format version : Version 1
      Format profile : Layer 3
      Mode : Joint stereo
      Mode extension : MS Stereo
      Codec ID : 55
      Codec ID/Hint : MP3
      Duration : 42mn 26s
      Bit rate mode : Constant
      Bit rate : 128 Kbps
      Channel(s) : 2 channels
      Sampling rate : 48.0 KHz
      Compression mode : Lossy
      Stream size : 38.9 MiB (7%)
      Alignment : Split accross interleaves
      Interleave, duration : 40 ms (1.00 video frame)
      Interleave, preload duration : 500 ms
      Writing library : LAME3.98.2
Семпл: http://multi-up.com/827812

picpicpicpicpicpicpicpicpicpicpicpicpicpicpicpicpic
Для увеличения картинки щелкните мышкой по превью
Сериал который был выложен и зарегистрирован более двух месяцев назад буду раздавать с 23.00ч до 06.00ч утра ( вина в этом немоя, а пользователей которые неподдерживают раздачу)

Этот торрент недоступен для скачивания без регистрации, однако доступен по публичной magnet-ссылке (источники с публичных трекеров). Перед использованием ссылки прочтите, пожалуйста Пользовательское соглашение, а также как можно дольше оставайтесь на раздаче! Для того, чтобы скачать сам торрент-файл (который видит больше источников), а также для того, чтобы поблагодарить релизера, вам необходимо зарегистрироваться. Если регистрироваться лень - вы можете также попробовать скачать релиз по нашим партнерским ссылкам ниже.

[underverse.su].t23949.torrent
Трекер: Зарегистрирован   [ 06.02.2013 16:50 ]  

Статус: проверено (by Чертёнок at 06.02.2013 17:23)
Поблагодарили: пока никто не поблагодарил...
Тип торрента: публичный - доступные источники с открытых трекеров: 
Размер: 4,08 GB (занимает 0,93 DVDR, для записи нужно 1 болванка DVDR/RW)
 
 

Яндекс.Метрика powered by Sphinx


В Н И М А Н И Е
Сайт не распространяет и не хранит электронные версии произведений, а лишь бесплатно и без коммерческой выгоды (не требуя взамен платы,
SMS и т.д.) предоставляет доступ к создаваемому пользователями каталогу ссылок на торрент-файлы, которые содержат только списки хеш-сумм.
Убедительная просьба с жалобами обращаться напрямую к пользователю, разместившему торрент файл.

Вверх