Loading...
Error

Кордон следователя Савельева / Серии: 1-32(32) (Сергей Крутин) [2013, Детектив, SATRip]

Статистика раздачи
Размер:  20,65 GB   |    Зарегистрирован:  3 года 9 месяцев   |    Скачан:  21 раз

Полного источника не было: 1 месяц 17 дней

Сидов:  0  |  0 KB/s  ]   Личеров:  0  |  0 KB/s  ]

* - сиды/пиры с внешних источников

   
 
Автор Сообщение

nemos Пол:Муж

06-Фев-2013 12:34


Год выпуска: 2012
Жанр: детектив
Страна: Россия
Режиссер: Сергей Крутин
В ролях: Дмитрий Марьянов, Александр Андриенко, Михаил Жигалов, Любовь Толкалина, Ада Роговцева, Нонна Гришаева, Евгений Ефремов, Елена Турбал, Сергей Фролов, Анастасия Саламатина, Владимир Миняйло, Евгений Косырев, Вячеслав Шихалеев, Дмитрий Арбенин, Владимир Чуприков, Денис Сердюков, Александр Нехороших, Михаил Досенко, Наталья Тищенко, Нина Курпякова, Тимофей Смирнов, Ирина Костырко, Сергей Ярый, Светлана Бельская, Андрей Бут, Елена Головина, Александра Цымбалюк, алентина Прокофьева, Виктория Любицкая, Александр Зуев, Злата Швец-Скальская, Любава Грешнова, Ольга Радчук, Ярослав Белый, Виталий Герасимов, Юлия Морозова, Александр Мякушко
Савельев решает выйти в отставку. Начальник искусственно затягивает процесс подписания рапорта, ведь Савельев не только его друг и классный сыщик, но и настоящий профессионал. Савельев, уроженец провинции, вдруг осознаёт, что проживание в мегаполисе уже ничего не даёт ему в отношении интереса к жизни. Конечно, повлияли на его решение и взаимоотношения с женой. Савельев год, как разведён.

Савельев настаивает на своей отставке и уезжает на родину, в районный город N. Здесь от покойных родителей осталась квартира. Но главное, что у Савельева есть постоянная возможность ездить на кордон, жить и дышать в лесной глуши.

Но к счастью или несчастью, профессия и высокая репутация не оставляют Савельева в покое. Его иногда привлекает к расследованиям местный прокурор, его однокашник — Черанёв. Но самое главное событие для Савельева — постигшая его любовь.


Качество видео: SatRip

Продолжительность: 00:48:34 серия
Формат: AVI
Видео: XviD, 720x384, 1 699 kbps
Аудио: русский, MP3 2.0, 192 kbps

Код:

E:\С underverse-3 Фильмы\Kordon.sledovatelya.saveleva.2012.XviD.SATRip.Files-x\Kordon.sledovatelya.saveleva.(32seriya).2012.XviD.SATRip.Files-x.avi
   General
      Complete name : E:\С underverse-3 Фильмы\Kordon.sledovatelya.saveleva.2012.XviD.SATRip.Files-x\Kordon.sledovatelya.saveleva.(32seriya).2012.XviD.SATRip.Files-x.avi
      Format : AVI
      Format/Info : Audio Video Interleave
      File size : 661 MiB
      Duration : 48mn 34s
      Overall bit rate : 1 901 Kbps
      Writing application : VirtualDubModRus 1.5.10.2 (build 2540/release)
      Writing library : VirtualDubMod build 2540/release
   Video #0
      ID : 0
      Format : MPEG-4 Visual
      Format profile : Advanced Simple@L5
      Format settings, BVOP : 1
      Format settings, QPel : No
      Format settings, GMC : No warppoints
      Format settings, Matrix : Default (H.263)
      Codec ID : XVID
      Codec ID/Hint : XviD
      Duration : 48mn 34s
      Bit rate : 1 699 Kbps
      Width : 720 pixels
      Height : 384 pixels
      Display aspect ratio : 1.85:1
      Frame rate : 25.000 fps
      Color space : YUV
      Chroma subsampling : 4:2:0
      Bit depth : 8 bits
      Scan type : Progressive
      Compression mode : Lossy
      Bits/(Pixel*Frame) : 0.246
      Stream size : 591 MiB (89%)
      Writing library : XviD 1.2.1 (UTC 2008-12-04)
   Audio #1
      ID : 1
      Format : MPEG Audio
      Format version : Version 1
      Format profile : Layer 3
      Codec ID : 55
      Codec ID/Hint : MP3
      Duration : 48mn 34s
      Bit rate mode : Constant
      Bit rate : 192 Kbps
      Channel(s) : 2 channels
      Sampling rate : 48.0 KHz
      Compression mode : Lossy
      Stream size : 66.7 MiB (10%)
      Alignment : Aligned on interleaves
      Interleave, duration : 40 ms (1.00 video frame)
      Interleave, preload duration : 504 ms
      Writing library : LAME3.98r
      Encoding settings : -m s -V 4 -q 2 -lowpass 18.6 -b 192
Семпл: http://multi-up.com/827709

picpicpicpicpicpicpicpicpicpicpicpicpicpicpicpicpicpic
Для увеличения картинки щелкните мышкой по превью
Сериал который был выложен и зарегистрирован более двух месяцев назад буду раздавать с 23.00ч до 06.00ч утра ( вина в этом немоя, а пользователей которые неподдерживают раздачу)

Этот торрент недоступен для скачивания без регистрации, однако доступен по публичной magnet-ссылке (источники с публичных трекеров). Перед использованием ссылки прочтите, пожалуйста Пользовательское соглашение, а также как можно дольше оставайтесь на раздаче! Для того, чтобы скачать сам торрент-файл (который видит больше источников), а также для того, чтобы поблагодарить релизера, вам необходимо зарегистрироваться. Если регистрироваться лень - вы можете также попробовать скачать релиз по нашим партнерским ссылкам ниже.

[underverse.su].t24657.torrent
Трекер: Зарегистрирован   [ 01.03.2013 16:04 ]  

Статус: проверено (by Jimmy at 07.03.2013 15:04)
Поблагодарили: 1 человек
Тип торрента: публичный - доступные источники с открытых трекеров: 
Размер: 20,65 GB (занимает 4,72 DVDR, для записи нужно 5 болванок DVDR/RW)
 
 


Последний раз редактировалось: nemos (06.11.2014 12:30), всего редактировалось 19 раз(а)

nemos Пол:Муж

06-Фев-2013 20:48

Обновлен торрент (4)

nemos Пол:Муж

09-Фев-2013 08:37

Обновлен торрент (6)

nemos Пол:Муж

12-Фев-2013 01:09

Обновлен торрент ( 8)

nemos Пол:Муж

13-Фев-2013 14:55

Обновлен торрент

nemos Пол:Муж

15-Фев-2013 19:12

Обновлен торрент

nemos Пол:Муж

16-Фев-2013 19:08

Обновлен торрент (18)

nemos Пол:Муж

22-Фев-2013 17:36

Обновлен торрент (32) весь

Яндекс.Метрика powered by Sphinx


В Н И М А Н И Е
Сайт не распространяет и не хранит электронные версии произведений, а лишь бесплатно и без коммерческой выгоды (не требуя взамен платы,
SMS и т.д.) предоставляет доступ к создаваемому пользователями каталогу ссылок на торрент-файлы, которые содержат только списки хеш-сумм.
Убедительная просьба с жалобами обращаться напрямую к пользователю, разместившему торрент файл.

Вверх