Loading...
Error

Тайны следствия - 12 / Серии: 12 (12) (Рената Грицкова) [2013, Детектив, драма, криминал, SATRip]

Статистика раздачи
Размер:  6,13 GB   |    Зарегистрирован:  3 года 9 месяцев   |    Скачан:  18 раз

Полного источника не было: 1 месяц 25 дней

Сидов:  0  |  0 KB/s  ]   Личеров:  0  |  0 KB/s  ]

* - сиды/пиры с внешних источников

   
 
Автор Сообщение

nemos Пол:Муж

06-Фев-2013 06:34


Год выпуска: 2013
Жанр: Детектив, драма, криминал
Страна: Россия
Режиссер: Рената Грицкова
В ролях: Анна Ковальчук, Вячеслав Захаров, Игорь Николаев (II), Александр Новиков (III), Игорь Григорьев (IV), Ольга Павловец, Мирослав Малич, Злата Ильченко, Игорь Соплин, Александр Шпилько, Андрей Шарков, Светлана Щедрина, Юлия Яковлева, Олег Алмазов, Дмитрий Поднозов, Александр Овчинников (III), Николай Смирнов (V), Маргарита Бычкова, Татьяна Бондаренко (II), Алексей Митин, Екатерина Зорина, Наталья Зацепина, Евгений Новоселов (II)
Детективный сериал, повествующий о нелегких буднях работников прокуратуры, ежедневно лицом к лицу сталкивающихся с жестоким миром преступности.

Мария Швецова продолжает трудиться в районном следственном комитете под руководством Николая Филонова. Каждый день становится для неё настоящим испытанием, ведь ей приходится бороться не только и не столько с преступностью, сколько с косностью и откровенным саботажем реальной следственной работы со стороны руководства. К счастью, коллеги и друзья не оставляют Машу в трудную минуту. Новый следователь Колонкова, с которой Швецова уже успела подружиться, Кораблёв, вернувшийся на службу в полицию, и неизменный друг и учитель Ковин всегда помогут ей в любом самом сложном деле. Кроме того, дома её ждёт дружная семья, вновь пополнившаяся вернувшимся из Англии старшим сыном Швецовой Костиком...


Качество видео: SatRip

Продолжительность: 00:41:55 серия
Формат: AVI
Видео: DivX, 704х400, 1 595 kbps
Аудио: русский, MP3 2.0, 128 kbps

Код:

E:\С underverse-3 Фильмы\Тайны следствия 12\Тайны следствия-12_04.avi
   General
      Complete name : E:\С underverse-3 Фильмы\Тайны следствия 12\Тайны следствия-12_04.avi
      Format : AVI
      Format/Info : Audio Video Interleave
      File size : 520 MiB
      Duration : 41mn 55s
      Overall bit rate : 1 733 Kbps
      Writing library : VirtualDub-MPEG2 build 24600/release
   Video #0
      ID : 0
      Format : MPEG-4 Visual
      Format profile : Simple@L3
      Format settings, BVOP : No
      Format settings, QPel : No
      Format settings, GMC : No warppoints
      Format settings, Matrix : Default (H.263)
      Codec ID : DX50
      Codec ID/Hint : DivX 5
      Duration : 41mn 55s
      Bit rate : 1 595 Kbps
      Width : 704 pixels
      Height : 400 pixels
      Display aspect ratio : 16:9
      Frame rate : 25.000 fps
      Color space : YUV
      Chroma subsampling : 4:2:0
      Bit depth : 8 bits
      Scan type : Progressive
      Compression mode : Lossy
      Bits/(Pixel*Frame) : 0.227
      Stream size : 478 MiB (92%)
      Writing library : XviD 1.2.1 (UTC 2008-12-04)
   Audio #1
      ID : 1
      Format : MPEG Audio
      Format version : Version 1
      Format profile : Layer 3
      Mode : Joint stereo
      Mode extension : MS Stereo
      Codec ID : 55
      Codec ID/Hint : MP3
      Duration : 41mn 55s
      Bit rate mode : Constant
      Bit rate : 128 Kbps
      Channel(s) : 2 channels
      Sampling rate : 48.0 KHz
      Compression mode : Lossy
      Stream size : 38.4 MiB (7%)
      Alignment : Split accross interleaves
      Interleave, duration : 40 ms (1.00 video frame)
      Interleave, preload duration : 500 ms
      Writing library : LAME3.98.2
Семпл: http://multi-up.com/827621

picpicpicpicpicpicpicpicpicpicpicpic
Для увеличения картинки щелкните мышкой по превью
Сериал который был выложен и зарегистрирован более двух месяцев назад буду раздавать с 23.00ч до 06.00ч утра ( вина в этом немоя, а пользователей которые неподдерживают раздачу)

Этот торрент недоступен для скачивания без регистрации, однако доступен по публичной magnet-ссылке (источники с публичных трекеров). Перед использованием ссылки прочтите, пожалуйста Пользовательское соглашение, а также как можно дольше оставайтесь на раздаче! Для того, чтобы скачать сам торрент-файл (который видит больше источников), а также для того, чтобы поблагодарить релизера, вам необходимо зарегистрироваться. Если регистрироваться лень - вы можете также попробовать скачать релиз по нашим партнерским ссылкам ниже.

[underverse.su].t24133.torrent
Трекер: Зарегистрирован   [ 12.02.2013 20:19 ]  

Статус: проверено (by Чертёнок at 12.02.2013 21:59)
Поблагодарили: 2 человека
Тип торрента: публичный - доступные источники с открытых трекеров: 
Размер: 6,13 GB (занимает 1,4 DVDR, для записи нужно 2 болванки DVDR/RW)
 
 
Похожие темы
Форум Тема Автор Торрент Отв. Посл. сооб.
xUSSR сериалы Тайны следствия - 13 / Серии: 1-20 (20) (Рената Грицкова) [2013 г., криминал, детектив, HDTVRip] nemos
6 | 0

1 | 1950

13

24.12.2013 01:50



Последний раз редактировалось: nemos (06.11.2014 09:42), всего редактировалось 10 раз(а)

nemos Пол:Муж

06-Фев-2013 21:08

Обновлен(6)

nemos Пол:Муж

07-Фев-2013 16:11

Обновлен( 8)

nemos Пол:Муж

12-Фев-2013 01:20

Обновлен

TopHaqo 

28-Авг-2013 08:31

если это 12-й сезон, то где найти первых 11?

Яндекс.Метрика powered by Sphinx


В Н И М А Н И Е
Сайт не распространяет и не хранит электронные версии произведений, а лишь бесплатно и без коммерческой выгоды (не требуя взамен платы,
SMS и т.д.) предоставляет доступ к создаваемому пользователями каталогу ссылок на торрент-файлы, которые содержат только списки хеш-сумм.
Убедительная просьба с жалобами обращаться напрямую к пользователю, разместившему торрент файл.

Вверх