Loading...
Error

Старики-разбойники (Эльдар Рязанов) [1971 г., комедия, DVDRip-AVC]

Статистика раздачи
Размер:  1,77 GB   |    Зарегистрирован:  3 года 9 месяцев   |    Скачан:  18 раз

Полного источника не было: 5 месяцев 6 дней

Сидов:  0  |  0 KB/s  ]   Личеров:  0  |  0 KB/s  ]

* - сиды/пиры с внешних источников

   
 
Автор Сообщение

garry Пол:Муж

05-Фев-2013 15:52

Старики-разбойники


Год выпуска: 1971
Жанр: комедия
Страна: СССР
Режиссер: Эльдар Рязанов
В ролях: Юрий Никулин, Евгений Евстигнеев, Ольга Аросева, Георгий Бурков, Андрей Миронов, Валентина Владимирова, Юрий Белов, Валентина Талызина, Роман Филиппов, Нина Агапова
Сюжет фильма:
Следователя прокуратуры Мячикова, достигшего пенсионного возраста, пытаются насильно «уйти» с работы, так как на его место есть кандидат, присланный «сверху». Вместе со своим старинным другом, инженером Воробьевым, Мячиков решает организовать преступление, раскрыв которое он сможет доказать свою необходимость и незаменимость…

  • Мировая премьера: 7 декабря 1972

Качество видео: DVDRip-AVC

Продолжительность: 01:26:27
Формат: MKV
Видео: x264, 720x522, 2420 kbps
Аудио: русский, оригинал, AC3 5.1, 448 kbps

Код:

Уникальный идентификатор : 239563655280895863422151324327535969626 (0xB43A481F6835CDB0B373BD875FE0055A)
 Полное имя : E:\Stariki_razboyniki_DVD\Новая папка\Новая папка\Stariki_razboyniki).mkv
 Формат : Matroska
 Версия формата : Version 2
 Размер файла : 1,77 Гбайт
 Продолжительность : 1 ч. 26 м.
 Общий поток : 2926 Кбит/сек
 Дата кодирования : UTC 2013-02-04 07:05:13
 Программа кодирования : mkvmerge v3.4.0 ('Rapunzel') сборка от May 15 2010 09:38:20
 Библиотека кодирования : libebml v0.8.0 + libmatroska v0.9.0

Видео
 Идентификатор : 1
 Формат : AVC
 Формат/Информация : Advanced Video Codec
 Профиль формата : High@L4.1
 Параметр CABAC формата : Да
 Параметр ReFrames формата : 14 кадров
 Идентификатор кодека : V_MPEG4/ISO/AVC
 Продолжительность : 1 ч. 26 м.
 Битрейт : 2420 Кбит/сек
 Ширина : 720 пикселей
 Высота : 522 пикселя
 Соотношение сторон : 1,379
 Режим частоты кадров : Постоянный
 Частота кадров : 25,000 кадров/сек
 Цветовое пространство : YUV
 Субдискретизация насыщенности : 4:2:0
 Битовая глубина : 8 бит
 Тип развёртки : Прогрессивная
 Бит/(Пиксели*Кадры) : 0.258
 Размер потока : 1,46 Гбайт (83%)
 Библиотека кодирования : x264 core 125 r2208 d9d2288
 Настройки программы : cabac=1 / ref=14 / deblock=1:-1:-1 / analyse=0x3:0x133 / me=esa / subme=11 / psy=1 / psy_rd=1.00:0.00 / mixed_ref=1 / me_range=48 / chroma_me=0 / trellis=2 / 8x8dct=1 / cqm=0 / deadzone=21,11 / fast_pskip=0 / chroma_qp_offset=-2 / threads=9 / lookahead_threads=1 / sliced_threads=0 / nr=0 / decimate=1 / interlaced=0 / bluray_compat=0 / constrained_intra=0 / bframes=10 / b_pyramid=2 / b_adapt=2 / b_bias=0 / direct=1 / weightb=1 / open_gop=0 / weightp=2 / keyint=250 / keyint_min=25 / scenecut=40 / intra_refresh=0 / rc=crf / mbtree=0 / crf=19.0 / qcomp=0.65 / qpmin=0 / qpmax=69 / qpstep=4 / ip_ratio=1.40 / pb_ratio=1.30 / aq=1:0.90
 Язык : English
 Default : Нет
 Forced : Нет

Аудио
 Идентификатор : 2
 Формат : AC-3
 Формат/Информация : Audio Coding 3
 Расширение режима : CM (complete main)
 Параметр Endianness формата : Big
 Идентификатор кодека : A_AC3
 Продолжительность : 1 ч. 26 м.
 Вид битрейта : Постоянный
 Битрейт : 448 Кбит/сек
 Каналы : 6 каналов
 Расположение каналов : Front: L C R, Side: L R, LFE
 Частота : 48,0 КГц
 Битовая глубина : 16 бит
 Метод сжатия : С потерями
 Задержка видео : 558 мс.
 Размер потока : 277 Мбайт (15%)
 Default : Да
 Forced : Нет
Семпл: http://multi-up.com/827194

Релиз группы:

picpicpic
Для увеличения картинки щелкните мышкой по превью

Этот торрент недоступен для скачивания без регистрации, однако доступен по публичной magnet-ссылке (источники с публичных трекеров). Перед использованием ссылки прочтите, пожалуйста Пользовательское соглашение, а также как можно дольше оставайтесь на раздаче! Для того, чтобы скачать сам торрент-файл (который видит больше источников), а также для того, чтобы поблагодарить релизера, вам необходимо зарегистрироваться. Если регистрироваться лень - вы можете также попробовать скачать релиз по нашим партнерским ссылкам ниже.

[underverse.su].t23923.torrent
Трекер: Зарегистрирован   [ 05.02.2013 15:52 ]  

Статус: проверено (by Чертёнок at 05.02.2013 19:32)
Поблагодарили: 2 человека
Тип торрента: публичный - доступные источники с открытых трекеров: 
Размер: 1,77 GB (занимает 0,4 DVDR, для записи нужно 1 болванка DVDR/RW)
 
 

Яндекс.Метрика powered by Sphinx


В Н И М А Н И Е
Сайт не распространяет и не хранит электронные версии произведений, а лишь бесплатно и без коммерческой выгоды (не требуя взамен платы,
SMS и т.д.) предоставляет доступ к создаваемому пользователями каталогу ссылок на торрент-файлы, которые содержат только списки хеш-сумм.
Убедительная просьба с жалобами обращаться напрямую к пользователю, разместившему торрент файл.

Вверх