Loading...
Error

007: Координаты «Скайфолл» / Skyfall (Сэм Мендес) [2012 г., боевик, триллер, криминал, приключения, BDRip] Dub + Original HQ Underverse

Статистика раздачи
Размер:  2,91 GB   |    Зарегистрирован:  3 года 10 месяцев   |    Скачан:  117 раз

Полного источника не было: 2 дня 13 часов

Сидов:  0  |  0 KB/s  ]   Личеров:  0  |  0 KB/s  ]

* - сиды/пиры с внешних источников

   
 
Автор Сообщение

HQ Underverse 

05-Фев-2013 05:38

007: Координаты «Скайфолл» / Skyfall


Год выпуска: 2012
Жанр: боевик, триллер, криминал, приключения
Страна: Великобритания , США
Режиссер: Сэм Мендес
В ролях: Дэниэл Крэйг, Хавьер Бардем, Джуди Денч, Рэйф Файнс, Наоми Харрис, Бен Уишоу, Альберт Финни, Беренис Марло, Хелен МакКрори, Тония Сотиропулу
Сюжет фильма:
Лояльность Бонда своей начальнице М под угрозой со стороны ее прошлого, которое внезапно даст о себе знать. MI6 подвергается нападению, и агент 007 должен ликвидировать угрозу, несмотря на цену, которую придется заплатить.

  • Мировая премьера: 23 октября 2012
  • Российская премьера: 26 октября 2012, «WDSSPR»

/
Качество видео: BDRip

Продолжительность: 02:23:09
Формат: avi
Видео: XviD, 720x304, 1995 kbps
Аудио #1: русский, дублированный [лицензия], AC3 5.1, 448 kbps
Аудио #2: английский, оригинал, AC3 5.1, 448 kbps
Аудио #3: украинский, дублированный [лицензия], AC3 5.1, 448 kbps (отдельным файлом)
Субтитры #1: внешние, SRT, русский
Субтитры #2: внешние, SRT, русский Forced
Субтитры #3: внешние, SRT, английский
Субтитры #4: внешние, SRT, английский SDH

Код:

General
Complete name                    : D:\Video\Movies\Releases\Skyfall.2012.BDRip.XviD.AC3.Rus.D.Eng.O.HQ.Underverse.avi
Format                           : AVI
Format/Info                      : Audio Video Interleave
Format profile                   : OpenDML
File size                        : 2.91 GiB
Duration                         : 2h 23mn
Overall bit rate                 : 2 907 Kbps
Writing application              : VirtualDubMod 1.5.10.2 (build 2540/release)
Writing library                  : VirtualDubMod build 2540/release

Video
ID                               : 0
Format                           : MPEG-4 Visual
Format profile                   : Streaming Video@L1
Format settings, BVOP            : Yes
Format settings, QPel            : No
Format settings, GMC             : No warppoints
Format settings, Matrix          : Custom
Muxing mode                      : Packed bitstream
Codec ID                         : XVID
Codec ID/Hint                    : XviD
Duration                         : 2h 23mn
Bit rate                         : 1 995 Kbps
Width                            : 720 pixels
Height                           : 304 pixels
Display aspect ratio             : 2.35
Frame rate                       : 23.976 fps
Resolution                       : 24 bits
Colorimetry                      : 4:2:0
Scan type                        : Progressive
Bits/(Pixel*Frame)               : 0.380
Stream size                      : 2.00 GiB (69%)
Writing library                  : XviD 64

Audio #1
ID                               : 1
Format                           : AC-3
Format/Info                      : Audio Coding 3
Codec ID                         : 2000
Duration                         : 2h 23mn
Bit rate mode                    : Constant
Bit rate                         : 448 Kbps
Channel(s)                       : 6 channels
Channel positions                : Front: L C R, Surround: L R, LFE
Sampling rate                    : 48.0 KHz
Stream size                      : 459 MiB (15%)
Alignment                        : Split accross interleaves
Interleave, duration             : 42 ms (1.00 video frame)
Interleave, preload duration     : 500 ms
Title                            : Skyfall.2012.Rus.Dub.AC3.5.1.448.kbps.HQ.Underverse.ac3

Audio #2
ID                               : 2
Format                           : AC-3
Format/Info                      : Audio Coding 3
Codec ID                         : 2000
Duration                         : 2h 23mn
Bit rate mode                    : Constant
Bit rate                         : 448 Kbps
Channel(s)                       : 6 channels
Channel positions                : Front: L C R, Surround: L R, LFE
Sampling rate                    : 48.0 KHz
Stream size                      : 459 MiB (15%)
Alignment                        : Split accross interleaves
Interleave, duration             : 42 ms (1.00 video frame)
Interleave, preload duration     : 500 ms
Title                            : Skyfall.2012.Eng.O.AC3.5.1.448.kbps.HQ.Underverse.ac3

General
Complete name                    : D:\Video\Movies\Releases\Skyfall.2012.BDRip.XviD.AC3.Rus.D.Eng.O.HQ.Underverse.Ukr.ac3
Format                           : AC-3
Format/Info                      : Audio Coding 3
File size                        : 459 MiB
Duration                         : 2h 23mn
Overall bit rate                 : 448 Kbps

Audio
Format                           : AC-3
Format/Info                      : Audio Coding 3
Duration                         : 2h 23mn
Bit rate mode                    : Constant
Bit rate                         : 448 Kbps
Channel(s)                       : 6 channels
Channel positions                : Front: L C R, Surround: L R, LFE
Sampling rate                    : 48.0 KHz
Stream size                      : 459 MiB (100%)

Семпл: http://multi-up.com/827288

Релиз группы:

picpicpic
Для увеличения картинки щелкните мышкой по превью

Этот торрент недоступен для скачивания без регистрации, однако доступен по публичной magnet-ссылке (источники с публичных трекеров). Перед использованием ссылки прочтите, пожалуйста Пользовательское соглашение, а также как можно дольше оставайтесь на раздаче! Для того, чтобы скачать сам торрент-файл (который видит больше источников), а также для того, чтобы поблагодарить релизера, вам необходимо зарегистрироваться. Если регистрироваться лень - вы можете также попробовать скачать релиз по нашим партнерским ссылкам ниже.

[underverse.su].t23908.torrent
Трекер: Зарегистрирован   [ 05.02.2013 05:38 ]  

Статус: проверено (by Паукан at 05.02.2013 13:24)
Поблагодарили: 8 человек
Тип торрента: публичный - доступные источники с открытых трекеров: 
Размер: 2,91 GB (занимает 2/3 DVDR, для записи нужно 1 болванка DVDR/RW)
 
 
Похожие темы
Форум Тема Автор Торрент Отв. Посл. сооб.
Зарубежное кино [DVDRip, Low-Res HDRip, и т.д.] 007: Координаты «Скайфолл» / Skyfall (Сэм Мендес) [2012, Боевик, триллер, криминал, приключения, DVDRip] Dub Garnett
0 | 0

1 | 642

40

06.02.2013 18:22

Зарубежное кино [DVDRip, Low-Res HDRip, и т.д.] 007: Координаты «Скайфолл» / Skyfall (Сэм Мендес) [2012 г., боевик, триллер, криминал, приключения, BDRip] Dub TERRAN
63 | 1

1 | 1103

50

02.04.2013 06:15

Трейлеры 007: Координаты «Скайфолл» / Skyfall [2012 г., Боевик, HDRip] nlife2k10
0 | 0

2 | 2065

5

29.09.2012 07:29

bezug22 Пол:Муж

22-Сен-2013 19:59

Фильм оставил хорошее впечатление,советую посмотреть.

Яндекс.Метрика powered by Sphinx


В Н И М А Н И Е
Сайт не распространяет и не хранит электронные версии произведений, а лишь бесплатно и без коммерческой выгоды (не требуя взамен платы,
SMS и т.д.) предоставляет доступ к создаваемому пользователями каталогу ссылок на торрент-файлы, которые содержат только списки хеш-сумм.
Убедительная просьба с жалобами обращаться напрямую к пользователю, разместившему торрент файл.

Вверх