Loading...
Error

Волк одиночка / Cry Wolf (Джефф Уодлоу) [2005 г., ужасы, триллер, драма, детектив, BDRip-AVC] Dub + Original

Статистика раздачи
Размер:  2,91 GB   |    Зарегистрирован:  3 года 10 месяцев   |    Скачан:  6 раз

Полного источника не было: 20 дней

Сидов:  0  |  0 KB/s  ]   Личеров:  0  |  0 KB/s  ]

* - сиды/пиры с внешних источников

   
 
Автор Сообщение

garry Пол:Муж

05-Фев-2013 02:18

Волк_одиночка / Cry_Wolf


Год выпуска: 2005
Жанр: ужасы, триллер, драма, детектив
Страна: США
Режиссер: Джефф Уодлоу
В ролях: Джулиан Моррис, Линди Бут, Джаред Падалеки, Джон Бон Джови, Сандра МакКой, Кристи Ву, Джесси Джанзэн, Пол Джеймс, Анна Дивер Смит, Этан Кон
Сюжет фильма:
Воспользовавшись тем, что убийство местной девушки осталось нераскрытым, студенты решают разыграть своих товарищей и распускают слухи о серийном убийце по прозвищу «Волк», маньяке с большим ножом, который выходит на свою кровавую охоту в камуфляже и с оранжевой маской на голове.

Описывая приметы следующих жертв Волка, друзья хотят проверить, сумеет ли кто-нибудь распознать их ложь. Но вдруг «выбранные» ими жертвы действительно начинают погибать… После цепочки загадочных смертей, друзья понимают, что они могут стать очередными жертвами интернет-маньяка, и им необходимо остановить убийцу…

  • Мировая премьера: 16 сентября 2005
  • Российская премьера: 8 декабря 2005, «Пирамида»


Качество видео: BDRip-AVC

Продолжительность: 01:30:14
Формат: MKV
Видео: x264, 1044x436, 3724 kbps
Аудио #1: русский, дублированный, AC3 5.1, 448 kbps
Аудио #2: английский, оригинал, AC3 5.1, 448 kbps
Субтитры #1: тип: вшитые отключаемые, русский, формат: SRT
Субтитры #2: тип: вшитые отключаемые, английский, формат: SRT

Код:

Полное имя                               : Cry Wolf 2005 x264 BDRip-AVC AC3 Sub Gambit.mkv
 Формат                                   : Matroska
 Версия формата                           : Version 2
 Размер файла                             : 2,91 Гбайт
 Продолжительность                        : 1 ч. 30 м.
 Общий поток                              : 4619 Кбит/сек
 Дата кодирования                         : UTC 2013-01-31 19:35:21
 Программа кодирования                    : mkvmerge v5.6.0 ('Kenya Kane') built on May 27 2012 16:44:04
 Библиотека кодирования                   : libebml v1.2.3 + libmatroska v1.3.0

Видео
 Идентификатор                            : 1
 Формат                                   : AVC
 Формат/Информация                        : Advanced Video Codec
 Профиль формата                          : High@L4.1
 Параметр CABAC формата                   : Да
 Параметр ReFrames формата                : 13 кадров
 Идентификатор кодека                     : V_MPEG4/ISO/AVC
 Продолжительность                        : 1 ч. 30 м.
 Битрейт                                  : 3724 Кбит/сек
 Ширина                                   : 1044 пикселя
 Высота                                   : 436 пикселей
 Соотношение сторон                       : 2,40:1
 Частота кадров                           : 24,000 кадра/сек
 Цветовое пространство                    : YUV
 Субдискретизация насыщенности            : 4:2:0
 Битовая глубина                          : 8 бит
 Тип развёртки                            : Прогрессивная
 Бит/(Пиксели*Кадры)                      : 0.341
 Размер потока                            : 2,29 Гбайт (79%)
 Заголовок                                : Cry Wolf 2005 x264 BDRip-AVC AC3 Sub Gambit
 Библиотека кодирования                   : x264 core 129 r2245kMod bc13772
 Настройки программы                      : cabac=1 / ref=13 / deblock=1:-3:-2 / analyse=0x3:0x133 / me=umh / subme=11 / psy=1 / fade_compensate=0.00 / psy_rd=1.09:0.04 / mixed_ref=1 / me_range=42 / chroma_me=1 / trellis=2 / 8x8dct=1 / cqm=0 / deadzone=21,11 / fast_pskip=0 / chroma_qp_offset=-3 / threads=12 / lookahead_threads=2 / sliced_threads=0 / nr=0 / decimate=0 / interlaced=0 / bluray_compat=0 / constrained_intra=0 / bframes=11 / b_pyramid=2 / b_adapt=2 / b_bias=0 / direct=3 / weightb=1 / open_gop=0 / weightp=2 / keyint=250 / keyint_min=24 / scenecut=40 / intra_refresh=0 / rc=2pass / mbtree=0 / bitrate=3724 / ratetol=1.0 / qcomp=0.65 / qpmin=0 / qpmax=69 / qpstep=4 / cplxblur=20.0 / qblur=0.5 / ip_ratio=1.25 / pb_ratio=1.35 / aq=3:0.80 / zones=120900,129943,q=35
 Язык                                     : English
 Default                                  : Да
 Forced                                   : Нет
 Коэффициенты матрицы                     : BT.709-5, BT.1361, IEC 61966-2-4 709, SMPTE RP177

Аудио #1
 Идентификатор                            : 2
 Формат                                   : AC-3
 Формат/Информация                        : Audio Coding 3
 Расширение режима                        : CM (complete main)
 Параметр Endianness формата              : Big
 Идентификатор кодека                     : A_AC3
 Продолжительность                        : 1 ч. 30 м.
 Вид битрейта                             : Постоянный
 Битрейт                                  : 448 Кбит/сек
 Каналы                                   : 6 каналов
 Расположение каналов                     : Front: L C R, Side: L R, LFE
 Частота                                  : 48,0 КГц
 Битовая глубина                          : 16 бит
 Метод сжатия                             : С потерями
 Размер потока                            : 289 Мбайт (10%)
 Заголовок                                : 48 kHz, AC3 Audio, 5.1, ~ 448 kbps, Dub
 Язык                                     : Russian
 Default                                  : Да
 Forced                                   : Нет

Аудио #2
 Идентификатор                            : 3
 Формат                                   : AC-3
 Формат/Информация                        : Audio Coding 3
 Расширение режима                        : CM (complete main)
 Параметр Endianness формата              : Big
 Идентификатор кодека                     : A_AC3
 Продолжительность                        : 1 ч. 30 м.
 Вид битрейта                             : Постоянный
 Битрейт                                  : 448 Кбит/сек
 Каналы                                   : 6 каналов
 Расположение каналов                     : Front: L C R, Side: L R, LFE
 Частота                                  : 48,0 КГц
 Битовая глубина                          : 16 бит
 Метод сжатия                             : С потерями
 Размер потока                            : 289 Мбайт (10%)
 Заголовок                                : 48 kHz, AC3 Audio, 5.1, ~ 448 kbps, Original
 Язык                                     : English
 Default                                  : Нет
 Forced                                   : Нет

Текст #1
 Идентификатор                            : 4
 Формат                                   : UTF-8
 Идентификатор кодека                     : S_TEXT/UTF8
 Идентификатор кодека/Информация          : UTF-8 Plain Text
 Заголовок                                : Russian
 Язык                                     : Russian
 Default                                  : Нет
 Forced                                   : Нет

Текст #2
 Идентификатор                            : 5
 Формат                                   : UTF-8
 Идентификатор кодека                     : S_TEXT/UTF8
 Идентификатор кодека/Информация          : UTF-8 Plain Text
 Заголовок                                : English
 Язык                                     : English
 Default                                  : Нет
 Forced                                   : Нет
Семпл: http://multi-up.com/825343

Релиз группы:

picpicpic
Для увеличения картинки щелкните мышкой по превью

Этот торрент недоступен для скачивания без регистрации, однако доступен по публичной magnet-ссылке (источники с публичных трекеров). Перед использованием ссылки прочтите, пожалуйста Пользовательское соглашение, а также как можно дольше оставайтесь на раздаче! Для того, чтобы скачать сам торрент-файл (который видит больше источников), а также для того, чтобы поблагодарить релизера, вам необходимо зарегистрироваться. Если регистрироваться лень - вы можете также попробовать скачать релиз по нашим партнерским ссылкам ниже.

[underverse.su].t23907.torrent
Трекер: Зарегистрирован   [ 05.02.2013 02:18 ]  

Статус: проверено (by Чертёнок at 05.02.2013 12:13)
Поблагодарили: пока никто не поблагодарил...
Тип торрента: публичный - доступные источники с открытых трекеров: 
Размер: 2,91 GB (занимает 2/3 DVDR, для записи нужно 1 болванка DVDR/RW)
 
 

Яндекс.Метрика powered by Sphinx


В Н И М А Н И Е
Сайт не распространяет и не хранит электронные версии произведений, а лишь бесплатно и без коммерческой выгоды (не требуя взамен платы,
SMS и т.д.) предоставляет доступ к создаваемому пользователями каталогу ссылок на торрент-файлы, которые содержат только списки хеш-сумм.
Убедительная просьба с жалобами обращаться напрямую к пользователю, разместившему торрент файл.

Вверх