Loading...
Error

Птицы / The Birds (Альфред Хичкок) [1963 г., ужасы, триллер, BDRip-AVC] DVO + MVO + Original

Статистика раздачи
Размер:  2,16 GB   |    Зарегистрирован:  3 года 9 месяцев   |    Скачан:  12 раз
Сидов:  1  |  0 KB/s  ]   Личеров:  0  |  0 KB/s  ]

* - сиды/пиры с внешних источников

   
 
Автор Сообщение

garry Пол:Муж

04-Фев-2013 19:00

Птицы / The Birds


Год выпуска: 1963
Жанр: ужасы, триллер
Страна: США
Режиссер: Альфред Хичкок
В ролях: Род Тейлор, Джессика Тэнди, Сюзанн Плешетт, Типпи Хедрен, Вероника Картрайт, Этель Гриффиз, Чарльз МакГроу, Рут МакДевитт, Лонни Чэпмен, Джо Мэнтелл
Сюжет фильма:
Классический фильм А. Хичкока, в котором ужасающая картина нападения птиц на американский поселок переплетается с историей любовных взаимоотношений молодой женщины с понравившимся ей мужчиной.

  • Мировая премьера: 28 марта 1963

/
Качество видео: BDRip-AVC

Продолжительность: 01:59:30
Формат: MKV
Видео: x264, 960x520, 2011 kbps
Аудио #1: русский, двухголосый закадровый [профессиональный, Blu-ray], AC3 2.0, 192 kbps
Аудио #2: русский, многоголосый закадровый [профессиональный, DVD], AC3 2.0, 192 kbps
Аудио #3: английский, оригинал, AC3 2.0, 192 kbps
Субтитры #1: тип: вшитые отключаемые, русский Blu-ray, формат: SRT
Субтитры #2: тип: вшитые отключаемые, русский, формат: SRT
Субтитры #3: тип: вшитые отключаемые, английский, формат: SRT
Субтитры #4: тип: вшитые отключаемые, английский SDH, формат: SRT

Код:

Format : Matroska
 Format version : Version 4 / Version 2
 File size : 2.16 GiB
 Duration : 1h 59mn
 Overall bit rate : 2 590 Kbps
 Movie name : The Birds (1963) BDRip
 Encoded date : UTC 2013-01-22 18:34:31
 Writing application : mkvmerge v6.0.0 ('Coming Up For Air') built on Jan 20 2013 09:52:00
 Writing library : libebml v1.3.0 + libmatroska v1.4.0
 Attachment : Yes

Video
 ID : 1
 Format : AVC
 Format/Info : Advanced Video Codec
 Format profile : High@L4.0
 Format settings, CABAC : Yes
 Format settings, ReFrames : 12 frames
 Codec ID : V_MPEG4/ISO/AVC
 Duration : 1h 59mn
 Bit rate : 1 962 Kbps
 Width : 960 pixels
 Height : 520 pixels
 Display aspect ratio : 1.85:1
 Frame rate mode : Constant
 Frame rate : 23.976 fps
 Color space : YUV
 Chroma subsampling : 4:2:0
 Bit depth : 8 bits
 Scan type : Progressive
 Bits/(Pixel*Frame) : 0.164
 Stream size : 1.64 GiB (76%)
 Writing library : x264 core 129 r2245kMod bc13772
 Encoding settings : cabac=1 / ref=12 / deblock=1:-2:-1 / analyse=0x3:0x133 / me=umh / subme=11 / psy=1 / fade_compensate=0.00 / psy_rd=1.15:0.05 / mixed_ref=1 / me_range=32 / chroma_me=1 / trellis=2 / 8x8dct=1 / cqm=0 / deadzone=21,11 / fast_pskip=0 / chroma_qp_offset=-3 / threads=6 / lookahead_threads=1 / sliced_threads=0 / nr=0 / decimate=1 / interlaced=0 / bluray_compat=0 / constrained_intra=0 / bframes=16 / b_pyramid=2 / b_adapt=2 / b_bias=0 / direct=1 / weightb=1 / open_gop=0 / weightp=2 / keyint=250 / keyint_min=23 / scenecut=40 / intra_refresh=0 / rc=crf / mbtree=0 / crf=21.3300 / qcomp=0.65 / qpmin=0 / qpmax=69 / qpstep=4 / ip_ratio=1.40 / pb_ratio=1.20 / aq=2:1.05
 Language : English
 Default : Yes
 Forced : No
 Matrix coefficients : BT.709

Audio #1
 ID : 2
 Format : AC-3
 Format/Info : Audio Coding 3
 Mode extension : CM (complete main)
 Format settings, Endianness : Big
 Codec ID : A_AC3
 Duration : 1h 59mn
 Bit rate mode : Constant
 Bit rate : 192 Kbps
 Channel(s) : 2 channels
 Channel positions : Front: L R
 Sampling rate : 48.0 KHz
 Bit depth : 16 bits
 Compression mode : Lossy
 Stream size : 164 MiB (7%)
 Title : DVO (BD)
 Language : Russian
 Default : Yes
 Forced : No

Audio #2
 ID : 3
 Format : AC-3
 Format/Info : Audio Coding 3
 Mode extension : CM (complete main)
 Format settings, Endianness : Big
 Codec ID : A_AC3
 Duration : 1h 59mn
 Bit rate mode : Constant
 Bit rate : 192 Kbps
 Channel(s) : 2 channels
 Channel positions : Front: L R
 Sampling rate : 48.0 KHz
 Bit depth : 16 bits
 Compression mode : Lossy
 Stream size : 164 MiB (7%)
 Title : MVO (DVD)
 Language : Russian
 Default : No
 Forced : No

Audio #3
 ID : 4
 Format : AC-3
 Format/Info : Audio Coding 3
 Mode extension : CM (complete main)
 Format settings, Endianness : Big
 Codec ID : A_AC3
 Duration : 1h 59mn
 Bit rate mode : Constant
 Bit rate : 192 Kbps
 Channel(s) : 2 channels
 Channel positions : Front: L R
 Sampling rate : 48.0 KHz
 Bit depth : 16 bits
 Compression mode : Lossy
 Stream size : 164 MiB (7%)
 Title : Original
 Language : English
 Default : No
 Forced : No

Text #1
 ID : 5
 Format : UTF-8
 Codec ID : S_TEXT/UTF8
 Codec ID/Info : UTF-8 Plain Text
 Title : BD
 Language : Russian
 Default : No
 Forced : No

Text #2
 ID : 6
 Format : UTF-8
 Codec ID : S_TEXT/UTF8
 Codec ID/Info : UTF-8 Plain Text
 Language : Russian
 Default : No
 Forced : No

Text #3
 ID : 7
 Format : UTF-8
 Codec ID : S_TEXT/UTF8
 Codec ID/Info : UTF-8 Plain Text
 Language : English
 Default : No
 Forced : No

Text #4
 ID : 8
 Format : UTF-8
 Codec ID : S_TEXT/UTF8
 Codec ID/Info : UTF-8 Plain Text
 Title : SDH
 Language : English
 Default : No
 Forced : No

Menu
 00:00:00.000 : en:Main Titles
 00:01:44.896 : en:At the Pet Store
 00:09:35.866 : en:The Love Birds
 00:20:05.871 : en:Bodega Bay
 00:29:35.356 : en:Meeting Mrs. Brenner
 00:32:16.225 : en:The Chickens Won't Eat
 00:40:59.582 : en:At Annie's House
 00:47:49.157 : en:Cathy's Party
 00:54:01.529 : en:Dinner
 00:58:52.737 : en:Dan Fawcett's Farm
 01:08:16.050 : en:The School
 01:15:48.335 : en:At the Restaurant
 01:24:26.227 : en:The Gas Station
 01:26:19.299 : en:The Phone Booth
 01:28:02.193 : en:Laying Blame
 01:29:43.169 : en:Where's Cathy?
 01:33:55.588 : en:Under Siege
 01:45:14.766 : en:Upstairs
 01:51:16.503 : en:Evicted
 01:56:19.472 : en:The Only Way Out
Семпл: http://multi-up.com/820603

Релиз группы:

picpicpic
Для увеличения картинки щелкните мышкой по превью

Этот торрент недоступен для скачивания без регистрации, однако доступен по публичной magnet-ссылке (источники с публичных трекеров). Перед использованием ссылки прочтите, пожалуйста Пользовательское соглашение, а также как можно дольше оставайтесь на раздаче! Для того, чтобы скачать сам торрент-файл (который видит больше источников), а также для того, чтобы поблагодарить релизера, вам необходимо зарегистрироваться. Если регистрироваться лень - вы можете также попробовать скачать релиз по нашим партнерским ссылкам ниже.

[underverse.su].t23902.torrent
Трекер: Зарегистрирован   [ 04.02.2013 19:00 ]  

Статус: проверено (by Чертёнок at 04.02.2013 20:36)
Поблагодарили: 1 человек
Тип торрента: публичный - доступные источники с открытых трекеров: 
Размер: 2,16 GB (занимает 0,49 DVDR, для записи нужно 1 болванка DVDR/RW)
 
 

Яндекс.Метрика powered by Sphinx


В Н И М А Н И Е
Сайт не распространяет и не хранит электронные версии произведений, а лишь бесплатно и без коммерческой выгоды (не требуя взамен платы,
SMS и т.д.) предоставляет доступ к создаваемому пользователями каталогу ссылок на торрент-файлы, которые содержат только списки хеш-сумм.
Убедительная просьба с жалобами обращаться напрямую к пользователю, разместившему торрент файл.

Вверх