Loading...
Error

Полицейский из Беверли-Хиллз 3 / Beverly Hills Cop III (Джон Лэндис) [1994 г., боевик, триллер, комедия, криминал, BDRip-AVC] 2xMVO + Original

Статистика раздачи
Размер:  2,74 GB   |    Зарегистрирован:  3 года 10 месяцев   |    Скачан:  12 раз

Полного источника не было: 22 дня

Сидов:  0  |  0 KB/s  ]   Личеров:  0  |  0 KB/s  ]

* - сиды/пиры с внешних источников

   
 
Автор Сообщение

garry Пол:Муж

04-Фев-2013 18:52

Полицейский из Беверли-Хиллз 3 / Beverly Hills Cop III


Год выпуска: 1994
Жанр: боевик, триллер, комедия, криминал
Страна: США
Режиссер: Джон Лэндис
В ролях: Эдди Мёрфи, Джон Тенни, Джои Траволта, Юджин Колльер, Джимми Ортега, Усон Илам, Рэй Лайкинс, Тим Гилберт, Рик Эйвери, Гилберт Р. Хилл
Сюжет фильма:
После перерыва в семь лет полицейский из Детройта Аксель Фоули снова вынужден побывать у своих друзей в Беверли-Хиллз. Его приводят туда поиски убийцы любимого шефа.

В результате парк аттракционов «Мир чудес», где бандиты в жутком подполье печатали фальшивые доллары, стал ареной боевых действий, а наш герой отомстил убийцам, прославился и познакомился с очаровательной работницей парка.

  • Мировая премьера: 25 мая 1994

/
Качество видео: BDRip-AVC

Продолжительность: 01:44:14
Формат: MKV
Видео: x264, 958x540, 2601 kbps
Аудио #1: русский, многоголосый закадровый [профессиональный, Киномания], AC3 5.1, 448 kbps
Аудио #2: русский, многоголосый закадровый [профессиональный, СТС], AC3 2.0, 192 kbps
Аудио #3: английский, оригинал, AC3 5.1, 448 kbps
Субтитры #1: тип: вшитые отключаемые, русский (нецензурные), формат: SRT
Субтитры #2: тип: вшитые отключаемые, английский, формат: SRT

Код:

eneral
 Complete name : J:\torrents\Beverly Hills Cop III (1994)\Beverly.Hills.Cop.III.1994.BDRip.2xRus.Eng.Subs.mkv
 Format : Matroska
 Format version : Version 4 / Version 2
 File size : 2.74 GiB
 Duration : 1h 44mn
 Overall bit rate : 3 765 Kbps
 Movie name : Beverly Hills Cop III (1994)
 Encoded date : UTC 2010-02-22 21:41:31
 Writing application : mkvmerge v5.9.0 ('On The Loose') built on Dec 9 2012 15:37:01
 Writing library : libebml v1.3.0 + libmatroska v1.4.0

Video
 ID : 1
 Format : AVC
 Format/Info : Advanced Video Codec
 Format profile : High@L4.1
 Format settings, CABAC : Yes
 Format settings, ReFrames : 11 frames
 Codec ID : V_MPEG4/ISO/AVC
 Duration : 1h 44mn
 Bit rate : 2 602 Kbps
 Width : 958 pixels
 Height : 540 pixels
 Display aspect ratio : 16:9
 Frame rate : 23.976 fps
 Color space : YUV
 Chroma subsampling : 4:2:0
 Bit depth : 8 bits
 Scan type : Progressive
 Bits/(Pixel*Frame) : 0.210
 Stream size : 1.89 GiB (69%)
 Writing library : x264 core 129 r2230 1cffe9f
 Encoding settings : cabac=1 / ref=11 / deblock=1:-3:-2 / analyse=0x3:0x133 / me=umh / subme=11 / psy=1 / psy_rd=1.05:0.10 / mixed_ref=1 / me_range=48 / chroma_me=1 / trellis=2 / 8x8dct=1 / cqm=0 / deadzone=21,11 / fast_pskip=1 / chroma_qp_offset=-3 / threads=2 / lookahead_threads=1 / sliced_threads=0 / nr=0 / decimate=1 / interlaced=0 / bluray_compat=0 / constrained_intra=0 / bframes=11 / b_pyramid=2 / b_adapt=2 / b_bias=0 / direct=1 / weightb=1 / open_gop=0 / weightp=2 / keyint=240 / keyint_min=24 / scenecut=40 / intra_refresh=0 / rc=crf / mbtree=0 / crf=17.9 / qcomp=0.60 / qpmin=10 / qpmax=51 / qpstep=4 / ip_ratio=1.40 / pb_ratio=1.30 / aq=2:0.80 / zones=140160,149947,q=32
 Language : English
 Default : Yes
 Forced : No

Audio #1
 ID : 2
 Format : AC-3
 Format/Info : Audio Coding 3
 Mode extension : CM (complete main)
 Codec ID : A_AC3
 Duration : 1h 44mn
 Bit rate mode : Constant
 Bit rate : 448 Kbps
 Channel(s) : 6 channels
 Channel positions : Front: L C R, Side: L R, LFE
 Sampling rate : 48.0 KHz
 Bit depth : 16 bits
 Compression mode : Lossy
 Stream size : 334 MiB (12%)
 Title : MVO - Киномания
 Language : Russian
 Default : Yes
 Forced : No

Audio #2
 ID : 3
 Format : AC-3
 Format/Info : Audio Coding 3
 Format profile : Dolby Digital
 Mode extension : CM (complete main)
 Codec ID : A_AC3
 Duration : 1h 44mn
 Bit rate mode : Constant
 Bit rate : 192 Kbps
 Channel(s) : 2 channels
 Channel positions : Front: L R
 Sampling rate : 48.0 KHz
 Bit depth : 16 bits
 Compression mode : Lossy
 Stream size : 143 MiB (5%)
 Title : MVO - СТС
 Language : Russian
 Default : No
 Forced : No

Audio #3
 ID : 4
 Format : AC-3
 Format/Info : Audio Coding 3
 Mode extension : CM (complete main)
 Codec ID : A_AC3
 Duration : 1h 44mn
 Bit rate mode : Constant
 Bit rate : 448 Kbps
 Channel(s) : 6 channels
 Channel positions : Front: L C R, Side: L R, LFE
 Sampling rate : 48.0 KHz
 Bit depth : 16 bits
 Compression mode : Lossy
 Stream size : 334 MiB (12%)
 Title : Original
 Language : English
 Default : No
 Forced : No

Text #1
 ID : 5
 Format : UTF-8
 Codec ID : S_TEXT/UTF8
 Codec ID/Info : UTF-8 Plain Text
 Title : Full
 Language : Russian
 Default : No
 Forced : No

Text #2
 ID : 6
 Format : UTF-8
 Codec ID : S_TEXT/UTF8
 Codec ID/Info : UTF-8 Plain Text
 Title : Full
 Language : English
 Default : No
 Forced : No

Menu
 00:00:00.000 : en:00:00:00.000
 00:09:35.116 : en:00:09:35.116
 00:15:58.958 : en:00:15:58.958
 00:20:58.299 : en:00:20:58.299
 00:26:57.699 : en:00:26:57.699
 00:37:38.256 : en:00:37:38.256
 00:40:06.487 : en:00:40:06.487
 00:46:27.076 : en:00:46:27.076
 00:53:20.489 : en:00:53:20.489
 00:56:22.504 : en:00:56:22.504
 01:03:24.342 : en:01:03:24.342
 01:10:30.226 : en:01:10:30.226
 01:19:38.857 : en:01:19:38.857
 01:37:22.837 : en:01:37:22.837
Семпл: http://multi-up.com/820248

Релиз группы:

picpicpic
Для увеличения картинки щелкните мышкой по превью

Этот торрент недоступен для скачивания без регистрации, однако доступен по публичной magnet-ссылке (источники с публичных трекеров). Перед использованием ссылки прочтите, пожалуйста Пользовательское соглашение, а также как можно дольше оставайтесь на раздаче! Для того, чтобы скачать сам торрент-файл (который видит больше источников), а также для того, чтобы поблагодарить релизера, вам необходимо зарегистрироваться. Если регистрироваться лень - вы можете также попробовать скачать релиз по нашим партнерским ссылкам ниже.

[underverse.su].t23900.torrent
Трекер: Зарегистрирован   [ 04.02.2013 18:52 ]  

Статус: проверено (by Чертёнок at 04.02.2013 20:38)
Поблагодарили: 1 человек
Тип торрента: публичный - доступные источники с открытых трекеров: 
Размер: 2,74 GB (занимает 0,63 DVDR, для записи нужно 1 болванка DVDR/RW)
 
 
Похожие темы
Форум Тема Автор Торрент Отв. Посл. сооб.
Зарубежное кино [DVDRip, Low-Res HDRip, и т.д.] Полицейский 2000 года / TC 2000 (Т.Дж. Скотт) [1993 г., фантастика, боевик, DVDRip] AVO [А. Гаврилов] RG NewCinema
0 | 0

1 | 881

6

10.12.2012 17:50

Зарубежное кино [DVDRip, Low-Res HDRip, и т.д.] Полицейский из Беверли-Хиллз 3 / Beverly Hills Cop III (Джон Лэндис) [1994 г., боевик, триллер, комедия, криминал, BDRip] MVO (Киномания) + MVO (СТС) + Original 90ytr90
3 | 0

0 | 1176

7

24.09.2013 17:04

Зарубежное кино [DVDRip, Low-Res HDRip, и т.д.] Полицейские / Cop Land (Джеймс Мэнгоулд / James Mangold) [1997 г., боевик, детектив, триллер, BDRip] MVO 90ytr90
12 | 0

0 | 682

4

22.01.2014 15:30

Зарубежное кино [DVDRip, Low-Res HDRip, и т.д.] Полицейские / Cop Land (Джеймс Мэнгоулд / James Mangold) [1997 г., боевик, детектив, триллер, HDRip] MVO + DVO + Original + Sub (Rus, Eng) 90ytr90
2 | 0

0 | 303

1

22.01.2014 16:02

Зарубежное кино [DVDRip, Low-Res HDRip, и т.д.] Полицейский-самурай 2: Смертельная месть / Samurai Cop 2: Deadly Vengeance (Грегори Хатанака) [2015 г., боевик, триллер, криминал, HDRip] VO + Original makkol
19 | 1

0 | 939

12

21.04.2016 13:58

Зарубежное кино [DVD / HDDVD / BD / Remux] Полицейский из Беверли-Хиллз 3 / Beverly Hills Cop III (Джон Лэндис / John Landis) [1994, боевик, триллер, комедия, криминал, Blu-ray disc (custom) 1080p] MVOх5 (Rus) + AVO + MVO (Ukr) + Original +... uzi2009
5 | 0

2 | 1594

2

28.10.2015 12:20

Зарубежное кино [HDDVDRip / BDRip / WEB-DL / HDTV 1080/720р] Полицейский-самурай 2: Смертельная месть / Samurai Cop 2: Deadly Vengeance (Грегори Хатанака) [2015 г., боевик, триллер, криминал, BDRip 720p] VO + Original makkol
5 | 0

1 | 1012

7

21.04.2016 18:07

xUSSR сериалы [BD / Remux / BDRip / WEB-DL / HDTV 1080/720р] Полицейский участок /Серии: 1-16 из 16 (Мирослав Малич) [2015 г., детектив, HDTV 1080i] nemos
0 | 0

0 | 647

2

23.08.2015 21:01


Яндекс.Метрика powered by Sphinx


В Н И М А Н И Е
Сайт не распространяет и не хранит электронные версии произведений, а лишь бесплатно и без коммерческой выгоды (не требуя взамен платы,
SMS и т.д.) предоставляет доступ к создаваемому пользователями каталогу ссылок на торрент-файлы, которые содержат только списки хеш-сумм.
Убедительная просьба с жалобами обращаться напрямую к пользователю, разместившему торрент файл.

Вверх