Loading...
Error

Феномен / Phenomenon (Джон Тёртелтауб) [1996 г., фэнтези, драма, BDRip-AVC] MVO + Original

Статистика раздачи
Размер:  2,91 GB   |    Зарегистрирован:  3 года 10 месяцев   |    Скачан:  15 раз

Полного источника не было: 12 дней

Сидов:  0  |  0 KB/s  ]   Личеров:  0  |  0 KB/s  ]

* - сиды/пиры с внешних источников

   
 
Автор Сообщение

garry Пол:Муж

03-Фев-2013 15:16

Феномен / Phenomenon


Год выпуска: 1996
Жанр: фэнтези, драма
Страна: США
Режиссер: Джон Тёртелтауб
В ролях: Джон Траволта, Кира Седжвик, Форест Уитакер, Роберт Дюваль, Джефри ДеМанн, Ричард Кайли, Дэвид Галлахер, Эшли Буккилль, Тони Дженаро, Шон О’Брайан
Сюжет фильма:
Автомеханик Джордж Мэлли безнадежно влюблен в очаровательную женщину, которая недавно переехала в его городок. Она не хочет завязывать новых отношений, и незадачливому поклоннику может помочь только чудо. И оно происходит… В день его рождения какая — то таинственная сила наделяет Джорджа уникальными умственными способностями и даром телекинеза. Возможно, теперь неприступная красавица наконец обратит на него внимание…

  • Мировая премьера: 3 июля 1996

/
Качество видео: BDRip-AVC

Продолжительность: 02:03:26
Формат: MKV
Видео: x264, 1096x460, 2545 kbps
Аудио #1: русский, многоголосый закадровый [профессиональный], AC3 5.1, 384 kbps
Аудио #2: английский, оригинал, AC3 5.1, 448 kbps
Субтитры #1: тип: вшитые отключаемые, русский, формат: SRT
Субтитры #2: тип: вшитые отключаемые, английский, формат: SRT

Код:

Complete name                            : Phenomenon 1996 x264 BDRip-AVC AC3 (Rus, Eng) Sub Gambit.mkv
 Format                                   : Matroska
 Format version                           : Version 2
 File size                                : 2.91 GiB
 Duration                                 : 2h 3mn
 Overall bit rate                         : 3 378 Kbps
 Encoded date                             : UTC 2013-01-13 10:17:12
 Writing application                      : mkvmerge v5.6.0 ('Kenya Kane') built on May 27 2012 16:44:04
 Writing library                          : libebml v1.2.3 + libmatroska v1.3.0

Video
 ID                                       : 1
 Format                                   : AVC
 Format/Info                              : Advanced Video Codec
 Format profile                           : High@L4.0
 Format settings, CABAC                   : Yes
 Format settings, ReFrames                : 10 frames
 Codec ID                                 : V_MPEG4/ISO/AVC
 Duration                                 : 2h 3mn
 Bit rate                                 : 2 545 Kbps
 Width                                    : 1 096 pixels
 Height                                   : 460 pixels
 Display aspect ratio                     : 2.40:1
 Frame rate                               : 23.976 fps
 Color space                              : YUV
 Chroma subsampling                       : 4:2:0
 Bit depth                                : 8 bits
 Scan type                                : Progressive
 Bits/(Pixel*Frame)                       : 0.211
 Stream size                              : 2.14 GiB (73%)
 Title                                    : Phenomenon 1996 x264 BDRip-AVC AC3 (Rus, Eng) Sub Gambit
 Writing library                          : x264 core 128 r2216kMod 198a7ea
 Encoding settings                        : cabac=1 / ref=10 / deblock=1:-2:-1 / analyse=0x3:0x133 / me=umh / subme=11 / psy=1 / fade_compensate=0.00 / psy_rd=1.11:0.04 / mixed_ref=1 / me_range=40 / chroma_me=1 / trellis=2 / 8x8dct=1 / cqm=0 / deadzone=21,11 / fast_pskip=0 / chroma_qp_offset=-3 / threads=6 / lookahead_threads=1 / sliced_threads=0 / nr=0 / decimate=0 / interlaced=0 / bluray_compat=0 / constrained_intra=0 / bframes=12 / b_pyramid=2 / b_adapt=2 / b_bias=0 / direct=3 / weightb=1 / open_gop=0 / weightp=2 / keyint=250 / keyint_min=23 / scenecut=40 / intra_refresh=0 / rc=2pass / mbtree=0 / bitrate=2545 / ratetol=1.0 / qcomp=0.70 / qpmin=0 / qpmax=69 / qpstep=4 / cplxblur=20.0 / qblur=0.5 / ip_ratio=1.25 / pb_ratio=1.35 / aq=3:0.70 / zones=28190,28714,b=2.0/30318,36305,b=2.0/171971,177577,q=35
 Language                                 : English
 Default                                  : Yes
 Forced                                   : No
 Matrix coefficients                      : BT.709-5, BT.1361, IEC 61966-2-4 709, SMPTE RP177

Audio #1
 ID                                       : 2
 Format                                   : AC-3
 Format/Info                              : Audio Coding 3
 Mode extension                           : CM (complete main)
 Codec ID                                 : A_AC3
 Duration                                 : 2h 3mn
 Bit rate mode                            : Constant
 Bit rate                                 : 384 Kbps
 Channel(s)                               : 6 channels
 Channel positions                        : Front: L C R, Side: L R, LFE
 Sampling rate                            : 48.0 KHz
 Bit depth                                : 16 bits
 Compression mode                         : Lossy
 Stream size                              : 339 MiB (11%)
 Title                                    : Russian, 48 kHz, AC3 Audio, 5.1, ~ 384 kbps
 Language                                 : Russian
 Default                                  : Yes
 Forced                                   : No

Audio #2
 ID                                       : 3
 Format                                   : AC-3
 Format/Info                              : Audio Coding 3
 Mode extension                           : CM (complete main)
 Codec ID                                 : A_AC3
 Duration                                 : 2h 3mn
 Bit rate mode                            : Constant
 Bit rate                                 : 448 Kbps
 Channel(s)                               : 6 channels
 Channel positions                        : Front: L C R, Side: L R, LFE
 Sampling rate                            : 48.0 KHz
 Bit depth                                : 16 bits
 Compression mode                         : Lossy
 Stream size                              : 396 MiB (13%)
 Title                                    : English, 48 kHz, AC3 Audio, 5.1, ~ 448 kbps
 Language                                 : English
 Default                                  : No
 Forced                                   : No

Text #1
 ID                                       : 4
 Format                                   : UTF-8
 Codec ID                                 : S_TEXT/UTF8
 Codec ID/Info                            : UTF-8 Plain Text
 Title                                    : Russian
 Language                                 : Russian
 Default                                  : No
 Forced                                   : No

Text #2
 ID                                       : 5
 Format                                   : UTF-8
 Codec ID                                 : S_TEXT/UTF8
 Codec ID/Info                            : UTF-8 Plain Text
 Title                                    : English
 Language                                 : English
 Default                                  : No
 Forced                                   : No

Menu
 00:00:00.000                             : en:00:00:00.000
 00:00:10.844                             : en:00:00:10.844
 00:06:32.309                             : en:00:06:32.309
 00:10:28.336                             : en:00:10:28.336
 00:16:19.604                             : en:00:16:19.604
 00:25:21.228                             : en:00:25:21.228
 00:34:18.473                             : en:00:34:18.473
 00:42:12.405                             : en:00:42:12.405
 00:47:33.017                             : en:00:47:33.017
 00:57:39.956                             : en:00:57:39.956
 01:05:10.573                             : en:01:05:10.573
 01:12:15.456                             : en:01:12:15.456
 01:20:00.921                             : en:01:20:00.921
 01:29:19.187                             : en:01:29:19.187
 01:35:09.996                             : en:01:35:09.996
 01:44:46.614                             : en:01:44:46.614
 01:52:15.437                             : en:01:52:15.437
 01:58:11.084                             : en:01:58:11.084
Семпл: http://multi-up.com/816443

Релиз группы:

picpicpic
Для увеличения картинки щелкните мышкой по превью

Этот торрент недоступен для скачивания без регистрации, однако доступен по публичной magnet-ссылке (источники с публичных трекеров). Перед использованием ссылки прочтите, пожалуйста Пользовательское соглашение, а также как можно дольше оставайтесь на раздаче! Для того, чтобы скачать сам торрент-файл (который видит больше источников), а также для того, чтобы поблагодарить релизера, вам необходимо зарегистрироваться. Если регистрироваться лень - вы можете также попробовать скачать релиз по нашим партнерским ссылкам ниже.

[underverse.su].t23879.torrent
Трекер: Зарегистрирован   [ 03.02.2013 15:16 ]  

Статус: проверено (by Garnett at 03.02.2013 17:40)
Поблагодарили: пока никто не поблагодарил...
Тип торрента: публичный - доступные источники с открытых трекеров: 
Размер: 2,91 GB (занимает 2/3 DVDR, для записи нужно 1 болванка DVDR/RW)
 
 
Похожие темы
Форум Тема Автор Торрент Отв. Посл. сооб.
Зарубежное кино [DVDRip, Low-Res HDRip, и т.д.] Феномен / Phenomenon (Джон Тертлтоуб /Jon Turteltaub/) [1996 г., мелодрама, фэнтези, DVDRip] oartemka178
0 | 0

1 | 571

4

19.08.2010 18:50

Зарубежное кино [DVDRip, Low-Res HDRip, и т.д.] Феномен / Phenomena (Дарио Ардженто) [1984 г., ужасы, детектив, HDRip] DVO RG NewCinema
1 | 0

0 | 753

4

13.12.2012 18:40

Zeratul1 Пол:Жен

04-Фев-2013 17:50

Смотрел в 1996-97 годах. Хороший, добрый фильм.

Яндекс.Метрика powered by Sphinx


В Н И М А Н И Е
Сайт не распространяет и не хранит электронные версии произведений, а лишь бесплатно и без коммерческой выгоды (не требуя взамен платы,
SMS и т.д.) предоставляет доступ к создаваемому пользователями каталогу ссылок на торрент-файлы, которые содержат только списки хеш-сумм.
Убедительная просьба с жалобами обращаться напрямую к пользователю, разместившему торрент файл.

Вверх