Loading...
Error

Дик Трэйси / Dick Tracy (Уоррен Битти) [1990 г., боевик, триллер, мелодрама, криминал, BDRip-AVC] MVO + Original

Статистика раздачи
Размер:  2,91 GB   |    Зарегистрирован:  3 года 10 месяцев   |    Скачан:  7 раз

Полного источника не было: 4 месяца 7 дней

Сидов:  0  |  0 KB/s  ]   Личеров:  0  |  0 KB/s  ]

* - сиды/пиры с внешних источников

   
 
Автор Сообщение

garry Пол:Муж

03-Фев-2013 15:08

Дик Трэйси / Dick Tracy


Год выпуска: 1990
Жанр: боевик, триллер, мелодрама, криминал
Страна: США
Режиссер: Уоррен Битти
В ролях: Уоррен Битти, Аль Пачино, Мадонна, Гленн Хедли, Чарли Корсмо, Дастин Хоффман, Чарльз Дёрнинг, Пол Сорвино, Майкл Дж. Поллард, Джеймс Кин
Сюжет фильма:
Тридцатые годы. Чикаго. В городе всем заправляет банда головорезов, которых никто не может остановить. Единственный, кому это под силу, — отважный сыщик Дик Трэйси. И он не отступит, даже если на его пути оказывается главарь мафии. Но сердце бесстрашного героя может не устоять перед чарами соблазнительной красотки…

  • Мировая премьера: 14 июня 1990

/
Качество видео: BDRip-AVC

Продолжительность: 01:45:05
Формат: MKV
Видео: x264, 1136x616, 3069 kbps
Аудио #1: русский, многоголосый закадровый [профессиональный], AC3 5.1, 448 kbps
Аудио #2: английский, оригинал, AC3 5.1, 448 kbps
Субтитры #1: тип: вшитые отключаемые, русский Forced, формат: SRT
Субтитры #2: тип: вшитые отключаемые, русский, формат: SRT
Субтитры #3: тип: вшитые отключаемые, английский, формат: SRT

Код:

General
 Unique ID : 204696160643315962014308666203848727086 (0x99FF0BE9491F0D8DBDA0D1607A4A5A2E)
 Complete name : F:\FILMS\___ - R - ___\Dick Tracy\Dick Tracy.mkv
 Format : Matroska
 Format version : Version 2
 File size : 2.91 GiB
 Duration : 1h 45mn
 Overall bit rate : 3 957 Kbps
 Encoded date : UTC 2013-01-10 20:05:56
 Writing application : mkvmerge v5.6.0 ('Kenya Kane') built on May 27 2012 16:44:04
 Writing library : libebml v1.2.3 + libmatroska v1.3.0

Video
 ID : 1
 Format : AVC
 Format/Info : Advanced Video Codec
 Format profile : High@L4.1
 Format settings, CABAC : Yes
 Format settings, ReFrames : 11 frames
 Codec ID : V_MPEG4/ISO/AVC
 Duration : 1h 45mn
 Bit rate : 3 069 Kbps
 Width : 1 136 pixels
 Height : 616 pixels
 Display aspect ratio : 1.85:1
 Frame rate mode : Constant
 Frame rate : 23.976 fps
 Color space : YUV
 Chroma subsampling : 4:2:0
 Bit depth : 8 bits
 Scan type : Progressive
 Bits/(Pixel*Frame) : 0.183
 Stream size : 2.19 GiB (75%)
 Title : AVC 1136x616@23.976 fps ~3069 kBit/s 2-pass High 4.1 1.85:1
 Writing library : x264 core 125 r2200bm 999b753
 Encoding settings : cabac=1 / ref=11 / deblock=1:-2:-1 / analyse=0x3:0x133 / me=umh / subme=10 / psy=1 / psy_rd=1.00:0.25 / mixed_ref=1 / me_range=24 / chroma_me=1 / trellis=2 / 8x8dct=1 / cqm=0 / deadzone=21,11 / fast_pskip=0 / chroma_qp_offset=-4 / threads=6 / lookahead_threads=1 / sliced_threads=0 / nr=0 / decimate=1 / interlaced=0 / bluray_compat=0 / constrained_intra=0 / bframes=16 / b_pyramid=2 / b_adapt=2 / b_bias=0 / direct=3 / weightb=1 / open_gop=1 / weightp=2 / keyint=250 / keyint_min=23 / scenecut=40 / intra_refresh=0 / rc=2pass / mbtree=0 / bitrate=3069 / ratetol=1.0 / qcomp=0.90 / qpmin=13 / qpmax=69 / qpstep=4 / cplxblur=50.0 / qblur=0.7 / ip_ratio=1.60 / pb_ratio=1.55 / aq=2:1.15
 Language : English
 Default : Yes
 Forced : No

Audio #1
 ID : 2
 Format : AC-3
 Format/Info : Audio Coding 3
 Mode extension : CM (complete main)
 Format settings, Endianness : Big
 Codec ID : A_AC3
 Duration : 1h 45mn
 Bit rate mode : Constant
 Bit rate : 448 Kbps
 Channel(s) : 6 channels
 Channel positions : Front: L C R, Side: L R, LFE
 Sampling rate : 48.0 KHz
 Bit depth : 16 bits
 Compression mode : Lossy
 Stream size : 337 MiB (11%)
 Title : MVO AC3 448 kBit/s 48 kHz 5.1 DD
 Language : Russian
 Default : Yes
 Forced : No

Audio #2
 ID : 3
 Format : AC-3
 Format/Info : Audio Coding 3
 Mode extension : CM (complete main)
 Format settings, Endianness : Big
 Codec ID : A_AC3
 Duration : 1h 45mn
 Bit rate mode : Constant
 Bit rate : 448 Kbps
 Channel(s) : 6 channels
 Channel positions : Front: L C R, Side: L R, LFE
 Sampling rate : 48.0 KHz
 Bit depth : 16 bits
 Compression mode : Lossy
 Stream size : 337 MiB (11%)
 Title : AC3 448 kBit/s 48 kHz 5.1 DD
 Language : English
 Default : No
 Forced : No

Text #1
 ID : 4
 Format : UTF-8
 Codec ID : S_TEXT/UTF8
 Codec ID/Info : UTF-8 Plain Text
 Title : форсированные
 Language : Russian
 Default : No
 Forced : No

Text #2
 ID : 5
 Format : UTF-8
 Codec ID : S_TEXT/UTF8
 Codec ID/Info : UTF-8 Plain Text
 Language : Russian
 Default : No
 Forced : No

Text #3
 ID : 6
 Format : UTF-8
 Codec ID : S_TEXT/UTF8
 Codec ID/Info : UTF-8 Plain Text
 Language : English
 Default : No
 Forced : No
Семпл: http://narod.ru/disk/65393050001.d2f213bc4ea1cc60e0b79189ca74dcbb/Dick%20Tracy%20(1)-002.mkv.html

Релиз группы:

picpicpic
Для увеличения картинки щелкните мышкой по превью

Этот торрент недоступен для скачивания без регистрации, однако доступен по публичной magnet-ссылке (источники с публичных трекеров). Перед использованием ссылки прочтите, пожалуйста Пользовательское соглашение, а также как можно дольше оставайтесь на раздаче! Для того, чтобы скачать сам торрент-файл (который видит больше источников), а также для того, чтобы поблагодарить релизера, вам необходимо зарегистрироваться. Если регистрироваться лень - вы можете также попробовать скачать релиз по нашим партнерским ссылкам ниже.

[underverse.su].t23878.torrent
Трекер: Зарегистрирован   [ 03.02.2013 15:08 ]  

Статус: проверено (by Garnett at 03.02.2013 17:39)
Поблагодарили: пока никто не поблагодарил...
Тип торрента: публичный - доступные источники с открытых трекеров: 
Размер: 2,91 GB (занимает 2/3 DVDR, для записи нужно 1 болванка DVDR/RW)
 
 

Яндекс.Метрика powered by Sphinx


В Н И М А Н И Е
Сайт не распространяет и не хранит электронные версии произведений, а лишь бесплатно и без коммерческой выгоды (не требуя взамен платы,
SMS и т.д.) предоставляет доступ к создаваемому пользователями каталогу ссылок на торрент-файлы, которые содержат только списки хеш-сумм.
Убедительная просьба с жалобами обращаться напрямую к пользователю, разместившему торрент файл.

Вверх