Loading...
Error

Поезд-беглец / Runaway Train (Андрей Кончаловский) [1985 г., боевик, триллер, драма, приключения, DVDRip-AVC] Dub + DVO + Original

Статистика раздачи
Размер:  2,14 GB   |    Зарегистрирован:  3 года 9 месяцев   |    Скачан:  9 раз

Полного источника не было: 3 года 6 месяцев

Сидов:  0  |  0 KB/s  ]   Личеров:  0  |  0 KB/s  ]

* - сиды/пиры с внешних источников

   
 
Автор Сообщение

garry Пол:Муж

03-Фев-2013 15:01

Поезд-беглец / Runaway Train


Год выпуска: 1985
Жанр: боевик, триллер, драма, приключения
Страна: США
Режиссер: Андрей Кончаловский
В ролях: Джон Войт, Эрик Робертс, Ребекка Де Морнэй, Кайл Т. Хеффнер, Джон П. Райан, Т.К. Картер, Кеннет МакМиллан, Стейси Пикрен, Уолтер Уайатт, Эдвард Банкер
Сюжет фильма:
В снежную бурю, посреди Аляски, на сумасшедшей скорости без остановок несется поезд в неизвестном направлении.

Машинист мертв, и некому остановить стальную громадину. В поезде находятся двое сбежавших из колонии уголовников и молодая женщина, и каждый новый километр приближает их то ли к смерти, то ли к спасению…

  • Мировая премьера: 15 ноября 1985


Качество видео: DVDRip-AVC

Продолжительность: 01:46:11
Формат: MKV
Видео: x264, 712x552@1012x552, 2219 kbps
Аудио #1: русский, дублированный, AC3 2.0, 192 kbps
Аудио #2: русский, двухголосый закадровый [профессиональный], AC3 2.0, 192 kbps
Аудио #3: английский, оригинал, AC3 2.0, 224 kbps
Субтитры #1: тип: вшитые отключаемые, русский, формат: SRT
Субтитры #2: тип: вшитые отключаемые, английский, формат: SRT

Код:

General
 Unique ID : 195404838376301074017770464861955265943 (0x93019A5AFA3E1795B5CD8976BDA79597)
 Complete name : D:\Video\RunawayTrain\RunawayTrain.mkv
 Format : Matroska
 Format version : Version 4 / Version 2
 File size : 2.14 GiB
 Duration : 1h 46mn
 Overall bit rate : 2 884 Kbps
 Encoded date : UTC 2010-02-22 21:41:31
 Writing application : mkvmerge v5.9.0 ('On The Loose') built on Dec 9 2012 15:37:01
 Writing library : libebml v1.3.0 + libmatroska v1.4.0

 Video #1
 ID : 1
 Format : AVC
 Format/Info : Advanced Video Codec
 Format profile : High@L4.1
 Format settings, CABAC : Yes
 Format settings, ReFrames : 6 frames
 Codec ID : V_MPEG4/ISO/AVC
 Duration : 1h 46mn
 Bit rate : 2 219 Kbps
 Width : 712 pixels
 Height : 552 pixels
 Display aspect ratio : 1.85:1
 Original display aspect ratio : 1.85:1
 Frame rate mode : Constant
 Frame rate : 25.000 fps
 Color space : YUV
 Chroma subsampling : 4:2:0
 Bit depth : 8 bits
 Scan type : Progressive
 Bits/(Pixel*Frame) : 0.226
 Stream size : 1.65 GiB (77%)
 Title : Видео
 Writing library : x264 core 129 r2230 1cffe9f
 Encoding settings : cabac=1 / ref=6 / deblock=1:0:0 / analyse=0x3:0x113 / me=umh / subme=9 / psy=1 / psy_rd=1.00:0.00 / mixed_ref=1 / me_range=16 / chroma_me=1 / trellis=1 / 8x8dct=1 / cqm=0 / deadzone=21,11 / fast_pskip=0 / chroma_qp_offset=-2 / threads=12 / lookahead_threads=2 / sliced_threads=0 / nr=0 / decimate=1 / interlaced=0 / bluray_compat=0 / constrained_intra=0 / bframes=16 / b_pyramid=2 / b_adapt=2 / b_bias=0 / direct=3 / weightb=1 / open_gop=0 / weightp=2 / keyint=250 / keyint_min=25 / scenecut=40 / intra_refresh=0 / rc_lookahead=60 / rc=crf / mbtree=1 / crf=19.0 / qcomp=0.60 / qpmin=0 / qpmax=69 / qpstep=4 / ip_ratio=1.40 / aq=1:1.00
 Language : English
 Default : Yes
 Forced : No

 Audio #2
 ID : 2
 Format : AC-3
 Format/Info : Audio Coding 3
 Mode extension : CM (complete main)
 Format settings, Endianness : Big
 Codec ID : A_AC3
 Duration : 1h 46mn
 Bit rate mode : Constant
 Bit rate : 192 Kbps
 Channel(s) : 2 channels
 Channel positions : Front: L R
 Sampling rate : 48.0 KHz
 Bit depth : 16 bits
 Compression mode : Lossy
 Delay relative to video : 90ms
 Stream size : 146 MiB (7%)
 Title : Дубляж
 Language : Russian
 Default : Yes
 Forced : No

 Audio #3
 ID : 3
 Format : AC-3
 Format/Info : Audio Coding 3
 Mode extension : CM (complete main)
 Format settings, Endianness : Big
 Codec ID : A_AC3
 Duration : 1h 46mn
 Bit rate mode : Constant
 Bit rate : 192 Kbps
 Channel(s) : 2 channels
 Channel positions : Front: L R
 Sampling rate : 48.0 KHz
 Bit depth : 16 bits
 Compression mode : Lossy
 Stream size : 146 MiB (7%)
 Title : Двухголосый перевод
 Language : Russian
 Default : No
 Forced : No

 Audio #4
 ID : 4
 Format : AC-3
 Format/Info : Audio Coding 3
 Format profile : Dolby Digital
 Mode extension : CM (complete main)
 Format settings, Endianness : Big
 Codec ID : A_AC3
 Duration : 1h 46mn
 Bit rate mode : Constant
 Bit rate : 224 Kbps
 Channel(s) : 2 channels
 Channel positions : Front: L R
 Sampling rate : 48.0 KHz
 Bit depth : 16 bits
 Compression mode : Lossy
 Stream size : 170 MiB (8%)
 Title : Оригинал
 Language : English
 Default : No
 Forced : No

 Text #5
 ID : 5
 Format : UTF-8
 Codec ID : S_TEXT/UTF8
 Codec ID/Info : UTF-8 Plain Text
 Title : Русские
 Language : Russian
 Default : No
 Forced : No

 Text #6
 ID : 6
 Format : UTF-8
 Codec ID : S_TEXT/UTF8
 Codec ID/Info : UTF-8 Plain Text
 Title : Английские
 Language : English
 Default : No
 Forced : No
Семпл: http://multi-up.com/815756

Релиз группы:

picpicpic
Для увеличения картинки щелкните мышкой по превью

Этот торрент недоступен для скачивания без регистрации, однако доступен по публичной magnet-ссылке (источники с публичных трекеров). Перед использованием ссылки прочтите, пожалуйста Пользовательское соглашение, а также как можно дольше оставайтесь на раздаче! Для того, чтобы скачать сам торрент-файл (который видит больше источников), а также для того, чтобы поблагодарить релизера, вам необходимо зарегистрироваться. Если регистрироваться лень - вы можете также попробовать скачать релиз по нашим партнерским ссылкам ниже.

[underverse.su].t23877.torrent
Трекер: Зарегистрирован   [ 03.02.2013 15:01 ]  

Статус: проверено (by Garnett at 03.02.2013 17:38)
Поблагодарили: пока никто не поблагодарил...
Тип торрента: публичный - доступные источники с открытых трекеров: 
Размер: 2,14 GB (занимает 0,49 DVDR, для записи нужно 1 болванка DVDR/RW)
 
 
Похожие темы
Форум Тема Автор Торрент Отв. Посл. сооб.
Зарубежное кино [DVDRip, Low-Res HDRip, и т.д.] Поезд-беглец / Runaway Train (Андрей Кончаловский / Andrei Konchalovsky) [1985 г., боевик, триллер, драма, BDRip] Dub + Original garry
10 | 0

0 | 1530

4

04.12.2013 17:03

Зарубежное кино [HDDVDRip / BDRip / WEB-DL / HDTV 1080/720р] Поезд-беглец / Runaway Train (Андрей Кончаловский) [1985 г., боевик, триллер, драма, приключения, BDRip 1080p] DuB Чертёнок
3 | 0

0 | 547

4

11.08.2013 12:53

Зарубежное кино [HDDVDRip / BDRip / WEB-DL / HDTV 1080/720р] Поезд-беглец / Сбежавший поезд / Runaway Train (Андрей Кончаловский) [1985 г., боевик, триллер, драма, приключения, BDRip 720p] Dub (Варус-Видео) + 2xDVO + 4xAVO + Original + Subs 90ytr90
0 | 0

0 | 1104

9

17.09.2013 16:31


Яндекс.Метрика powered by Sphinx


В Н И М А Н И Е
Сайт не распространяет и не хранит электронные версии произведений, а лишь бесплатно и без коммерческой выгоды (не требуя взамен платы,
SMS и т.д.) предоставляет доступ к создаваемому пользователями каталогу ссылок на торрент-файлы, которые содержат только списки хеш-сумм.
Убедительная просьба с жалобами обращаться напрямую к пользователю, разместившему торрент файл.

Вверх