Loading...
Error

Погоня / The Chase (Артур Пенн) [1966 г., драма, DVDRip] Dub

Статистика раздачи
Размер:  1,37 GB   |    Зарегистрирован:  3 года 10 месяцев   |    Скачан:  1 раз

Полного источника не было: 2 года 2 месяца

Сидов:  0  |  0 KB/s  ]   Личеров:  0  |  0 KB/s  ]

* - сиды/пиры с внешних источников

   
 
Автор Сообщение

jancov Пол:Муж

03-Фев-2013 12:29

Погоня / The Chase


Год выпуска: 1966
Жанр: драма
Страна: США
Режиссер: Артур Пенн
В ролях: Марлон Брандо, Джейн Фонда, Роберт Редфорд, Э. Г. Маршалл, Энджи Дикинсон, Дженис Рул, Мириам Хопкинс, Марта Хайер, Ричард Брэдфорд, Роберт Дюваль
Сюжет фильма:
Штат Техас. В тихом провинциальном городке следит за порядком добропорядочный шериф Колдер. Однажды покой городка нарушает известие о том, что из тюрьмы бежал Баббер, который желает свести старые счеты кое с кем из жителей города. Коррумпированные отцы города испугались появления беглеца, ведь он слишком много знает об их грязном прошлом. Чтобы поймать беглеца шериф уговаривает жену Баббера Анну и его сына Джейка встретиться с Баббером и предложить ему сдаться властям.

  • Мировая премьера: 17 февраля 1966

Качество видео: DVDRip

Продолжительность: 02:13:02
Формат: AVI
Видео: XviD, 704x304, 1271 kbps
Аудио: русский, дублированный, AC3 2.0, 192 kbps

Код:

General
Complete name                    : L:\Фильмы\заруб фильмы\Погоня 1966.avi
Format                           : AVI
Format/Info                      : Audio Video Interleave
File size                        : 1.37 GiB
Duration                         : 2h 13mn
Overall bit rate                 : 1 473 Kbps
Writing application              : VirtualDubMod 1.5.10.2 (build 2540/release)
Writing library                  : VirtualDub build 28225/release

Video
ID                               : 0
Format                           : MPEG-4 Visual
Format profile                   : Streaming Video@L1
Format settings, BVOP            : Yes
Format settings, QPel            : No
Format settings, GMC             : No warppoints
Format settings, Matrix          : Default (H.263)
Muxing mode                      : Packed bitstream
Codec ID                         : XVID
Codec ID/Hint                    : XviD
Duration                         : 2h 13mn
Bit rate                         : 1 272 Kbps
Width                            : 704 pixels
Height                           : 304 pixels
Display aspect ratio             : 2.35
Frame rate                       : 23.976 fps
Resolution                       : 24 bits
Colorimetry                      : 4:2:0
Scan type                        : Progressive
Bits/(Pixel*Frame)               : 0.248
Stream size                      : 1.18 GiB (86%)
Writing library                  : XviD 1.1.0 (UTC 2005-11-22)

Audio
ID                               : 1
Format                           : AC-3
Format/Info                      : Audio Coding 3
Codec ID                         : 2000
Duration                         : 2h 13mn
Bit rate mode                    : Constant
Bit rate                         : 192 Kbps
Channel(s)                       : 2 channels
Channel positions                : L R
Sampling rate                    : 48.0 KHz
Stream size                      : 183 MiB (13%)
Alignment                        : Aligned on interleaves
Interleave, duration             : 42 ms (1.00 video frame)
Interleave, preload duration     : 512 ms

pic pic pic
Для увеличения картинки щелкните мышкой по превью

Этот торрент недоступен для скачивания без регистрации, однако доступен по публичной magnet-ссылке (источники с публичных трекеров). Перед использованием ссылки прочтите, пожалуйста Пользовательское соглашение, а также как можно дольше оставайтесь на раздаче! Для того, чтобы скачать сам торрент-файл (который видит больше источников), а также для того, чтобы поблагодарить релизера, вам необходимо зарегистрироваться. Если регистрироваться лень - вы можете также попробовать скачать релиз по нашим партнерским ссылкам ниже.

[underverse.su].t23874.torrent
Трекер: Зарегистрирован   [ 03.02.2013 12:29 ]  

Статус: проверено (by техно1 at 03.02.2013 15:09)
Поблагодарили: 1 человек
Тип торрента: публичный - доступные источники с открытых трекеров: 
Размер: 1,37 GB (занимает 0,31 DVDR, для записи нужно 1 болванка DVDR/RW)
 
 


Последний раз редактировалось: jancov (09.02.2013 16:53), всего редактировалось 8 раз(а)

техно1 Пол:Муж

03-Фев-2013 12:43

jancov
У Вас скриншоты не соответствуют заявленному размеру, исправьте пожалуйста.

Код:

[img=right]http://img.underverse.su/t/138212/130203143947138212_2_0.jpg[/img]
Скопируйте и вставьте

jancov Пол:Муж

03-Фев-2013 14:15

техно1 писал(а):

jancov
У Вас скриншоты не соответствуют заявленному размеру, исправьте пожалуйста.

Код:

[img=right]http://img.underverse.su/t/138212/130203143947138212_2_0.jpg[/img]
Скопируйте и вставьте
Я сделал скриншоты большего размера, но не могу их вставить при редактировании, подскажите, пожалуйста

техно1 Пол:Муж

03-Фев-2013 14:37

jancov писал(а):

техно1 писал(а):

jancov
У Вас скриншоты не соответствуют заявленному размеру, исправьте пожалуйста.

Код:

[img=right]http://img.underverse.su/t/138212/130203143947138212_2_0.jpg[/img]
Скопируйте и вставьте
Я сделал скриншоты большего размера, но не могу их вставить при редактировании, подскажите, пожалуйста
Сделанные скриншоты заливаем Сюда, старые ссылки на изображения заменяем новыми, но помните они должны быть размером 704x304.

jancov Пол:Муж

03-Фев-2013 14:56

Спасибо, разобрался. а размеры постеров какие должны быть и где их брать

техно1 Пол:Муж

03-Фев-2013 15:05

jancov писал(а):

Спасибо, разобрался. а размеры постеров какие должны быть и где их брать
При создании релизов используйте Релиз-Wizard там написано "Обложка в формате JPG, GIF или PNG разрешением не более чем 500х600" и почитайте Общие правила создания и оформления раздач. Удачи.

Яндекс.Метрика powered by Sphinx


В Н И М А Н И Е
Сайт не распространяет и не хранит электронные версии произведений, а лишь бесплатно и без коммерческой выгоды (не требуя взамен платы,
SMS и т.д.) предоставляет доступ к создаваемому пользователями каталогу ссылок на торрент-файлы, которые содержат только списки хеш-сумм.
Убедительная просьба с жалобами обращаться напрямую к пользователю, разместившему торрент файл.

Вверх