Loading...
Error

Неуловимый / Anthony Zimmer (Жером Салль) [2005 г., триллер, драма, мелодрама, криминал, BDRip-AVC] Dub + Original

Статистика раздачи
Размер:  1,46 GB   |    Зарегистрирован:  3 года 10 месяцев   |    Скачан:  11 раз

Полного источника не было: 3 года 2 месяца

Сидов:  0  |  0 KB/s  ]   Личеров:  0  |  0 KB/s  ]

* - сиды/пиры с внешних источников

   
 
Автор Сообщение

garry Пол:Муж

29-Янв-2013 18:41

Неуловимый / Anthony Zimmer


Год выпуска: 2005
Жанр: триллер, драма, мелодрама, криминал
Страна: Франция
Режиссер: Жером Салль
В ролях: Софи Марсо, Иван Атталь, Сами Фрей, Жиль Леллуш, Даниэль Ольбрыхский, Самир Гесми, Димитри Рато, Никки Марбо, Оливье Ченеват, Элбан Кастерман
Сюжет фильма:
Интерпол преследует неуловимого мошенника Энтони Циммера, специализирующегося на отмывании денег для русской мафии. Поймать Циммера стало вдесятеро трудней после того, как он сделал пластическую операцию и полностью изменил свою внешность. Теперь единственная ниточка к мошеннику — обворожительная красотка Кьяра, любовница Циммера.

Но Кьяра, понимая, что ее попытаются использовать, заводит интрижку с простоватым парнем Франсуа. Некоторое сходство Франсуа и Циммера является вполне достаточным основанием и для спецслужб, и для мафии, чтобы попытаться убить Франсуа…

  • Мировая премьера: 27 апреля 2005
  • Российская премьера: 30 июня 2005, «Централ Партнершип»


Качество видео: BDRip-AVC

Продолжительность: 01:28:50
Формат: MKV
Видео: x264, 900x384, 1587 kbps
Аудио #1: русский, дублированный [лицензия], AC3 5.1, 384 kbps
Аудио #2: французский, оригинал, AC3 5.1, 384 kbps
Субтитры #1: тип: вшитые отключаемые, русский, формат: SRT
Субтитры #2: тип: вшитые отключаемые, английский, формат: SRT

Код:

Complete name                            : Anthony Zimmer 2005 x264 BDRip-AVC AC3 (Rus,Fre) Sub Gambit.mkv
 Format                                   : Matroska
 Format version                           : Version 2
 File size                                : 1.46 GiB
 Duration                                 : 1h 28mn
 Overall bit rate                         : 2 356 Kbps
 Encoded date                             : UTC 2012-12-22 16:38:46
 Writing application                      : mkvmerge v5.6.0 ('Kenya Kane') built on May 27 2012 16:44:04
 Writing library                          : libebml v1.2.3 + libmatroska v1.3.0

Video
 ID                                       : 1
 Format                                   : AVC
 Format/Info                              : Advanced Video Codec
 Format profile                           : High@L3.2
 Format settings, CABAC                   : Yes
 Format settings, ReFrames                : 10 frames
 Codec ID                                 : V_MPEG4/ISO/AVC
 Duration                                 : 1h 28mn
 Bit rate                                 : 1 587 Kbps
 Width                                    : 900 pixels
 Height                                   : 384 pixels
 Display aspect ratio                     : 2.35:1
 Frame rate                               : 23.976 fps
 Color space                              : YUV
 Chroma subsampling                       : 4:2:0
 Bit depth                                : 8 bits
 Scan type                                : Progressive
 Bits/(Pixel*Frame)                       : 0.192
 Stream size                              : 979 MiB (65%)
 Title                                    : Anthony Zimmer 2005 x264 BDRip-AVC AC3 (Rus,Fre) Sub Gambit
 Writing library                          : x264 core 128 r2216kMod 198a7ea
 Encoding settings                        : cabac=1 / ref=10 / deblock=1:-2:-1 / analyse=0x3:0x133 / me=umh / subme=11 / psy=1 / fade_compensate=0.00 / psy_rd=1.13:0.02 / mixed_ref=1 / me_range=48 / chroma_me=1 / trellis=2 / 8x8dct=1 / cqm=0 / deadzone=21,11 / fast_pskip=0 / chroma_qp_offset=-3 / threads=6 / lookahead_threads=1 / sliced_threads=0 / nr=0 / decimate=0 / interlaced=0 / bluray_compat=0 / constrained_intra=0 / bframes=10 / b_pyramid=2 / b_adapt=2 / b_bias=0 / direct=3 / weightb=1 / open_gop=0 / weightp=2 / keyint=250 / keyint_min=23 / scenecut=40 / intra_refresh=0 / rc=2pass / mbtree=0 / bitrate=1587 / ratetol=1.0 / qcomp=0.65 / qpmin=0 / qpmax=69 / qpstep=4 / cplxblur=20.0 / qblur=0.5 / ip_ratio=1.25 / pb_ratio=1.35 / aq=3:0.90 / zones=119924,127800,q=35
 Language                                 : English
 Default                                  : Yes
 Forced                                   : No
 Matrix coefficients                      : BT.709-5, BT.1361, IEC 61966-2-4 709, SMPTE RP177

Audio #1
 ID                                       : 2
 Format                                   : AC-3
 Format/Info                              : Audio Coding 3
 Mode extension                           : CM (complete main)
 Codec ID                                 : A_AC3
 Duration                                 : 1h 28mn
 Bit rate mode                            : Constant
 Bit rate                                 : 384 Kbps
 Channel(s)                               : 6 channels
 Channel positions                        : Front: L C R, Side: L R, LFE
 Sampling rate                            : 48.0 KHz
 Bit depth                                : 16 bits
 Compression mode                         : Lossy
 Stream size                              : 244 MiB (16%)
 Title                                    : Russian, 48 kHz, AC3 Audio, 5.1, ~ 384 kbps, DUB
 Language                                 : Russian
 Default                                  : Yes
 Forced                                   : No

Audio #2
 ID                                       : 3
 Format                                   : AC-3
 Format/Info                              : Audio Coding 3
 Mode extension                           : CM (complete main)
 Codec ID                                 : A_AC3
 Duration                                 : 1h 28mn
 Bit rate mode                            : Constant
 Bit rate                                 : 384 Kbps
 Channel(s)                               : 6 channels
 Channel positions                        : Front: L C R, Side: L R, LFE
 Sampling rate                            : 48.0 KHz
 Bit depth                                : 16 bits
 Compression mode                         : Lossy
 Stream size                              : 244 MiB (16%)
 Title                                    : French, 48 kHz, AC3 Audio, 5.1, ~ 384 kbps
 Language                                 : French
 Default                                  : No
 Forced                                   : No

Text #1
 ID                                       : 4
 Format                                   : UTF-8
 Codec ID                                 : S_TEXT/UTF8
 Codec ID/Info                            : UTF-8 Plain Text
 Title                                    : Russian
 Language                                 : Russian
 Default                                  : No
 Forced                                   : No

Text #2
 ID                                       : 5
 Format                                   : UTF-8
 Codec ID                                 : S_TEXT/UTF8
 Codec ID/Info                            : UTF-8 Plain Text
 Title                                    : English
 Language                                 : English
 Default                                  : No
 Forced                                   : No

Menu
 00:00:00.000                             : en:00:00:00.000
 00:01:08.819                             : en:00:01:08.819
 00:05:06.348                             : en:00:05:06.348
 00:10:03.770                             : en:00:10:03.770
 00:15:08.407                             : en:00:15:08.407
 00:20:18.300                             : en:00:20:18.300
 00:25:33.282                             : en:00:25:33.282
 00:30:04.761                             : en:00:30:04.761
 00:34:41.037                             : en:00:34:41.037
 00:39:50.888                             : en:00:39:50.888
 00:44:36.841                             : en:00:44:36.841
 00:49:34.263                             : en:00:49:34.263
 00:54:14.918                             : en:00:54:14.918
 00:57:08.050                             : en:00:57:08.050
 01:02:25.408                             : en:01:02:25.408
 01:07:18.117                             : en:01:07:18.117
 01:11:23.112                             : en:01:11:23.112
 01:16:11.025                             : en:01:16:11.025
 01:21:00.772                             : en:01:21:00.772
 01:24:37.072                             : en:01:24:37.072
Релиз группы:

picpicpic
Для увеличения картинки щелкните мышкой по превью

Этот торрент недоступен для скачивания без регистрации, однако доступен по публичной magnet-ссылке (источники с публичных трекеров). Перед использованием ссылки прочтите, пожалуйста Пользовательское соглашение, а также как можно дольше оставайтесь на раздаче! Для того, чтобы скачать сам торрент-файл (который видит больше источников), а также для того, чтобы поблагодарить релизера, вам необходимо зарегистрироваться. Если регистрироваться лень - вы можете также попробовать скачать релиз по нашим партнерским ссылкам ниже.

[underverse.su].t23751.torrent
Трекер: Зарегистрирован   [ 29.01.2013 18:41 ]  

Статус: проверено (by garry at 29.01.2013 18:41)
Поблагодарили: пока никто не поблагодарил...
Тип торрента: публичный - доступные источники с открытых трекеров: 
Размер: 1,46 GB (занимает 0,33 DVDR, для записи нужно 1 болванка DVDR/RW)
 
 
Похожие темы
Форум Тема Автор Торрент Отв. Посл. сооб.
Зарубежное кино [DVDRip, Low-Res HDRip, и т.д.] Неуловимый Люк / Lucky Luke (Джеймс Хат) [2009 г., комедия, приключения, вестерн, BDRip] RG NewCinema
0 | 0

0 | 536

7

07.10.2011 12:47

Зарубежное кино [DVDRip, Low-Res HDRip, и т.д.] Неуловимый / Anthony Zimmer (Жером Салль / Jerom Salle) [2005 г., триллер, драма, мелодрама, криминал, BDRip] Dub 90ytr90
17 | 0

0 | 1139

23

01.07.2014 10:47

Зарубежное кино [HDDVDRip / BDRip / WEB-DL / HDTV 1080/720р] Неуловимый / Anthony Zimmer (Жером Салль / Jerom Salle) [2005 г., триллер, драма, мелодрама, криминал, BDRip 720p] Dub + Original (Fre) + Sub (Rus, Eng) 90ytr90
1 | 0

0 | 695

9

01.07.2014 11:02

# Зарубежное кино [HDDVDRip / BDRip / WEB-DL / HDTV 1080/720р] Неуловимый / Anthony Zimmer (Жером Салль / Jerom Salle) [2005 г., триллер, драма, мелодрама, криминал, BDRip 1080p] Dub + Sub (Rus, Eng) 90ytr90
5 | 0

0 | 752

9

01.07.2014 11:15


Яндекс.Метрика powered by Sphinx


В Н И М А Н И Е
Сайт не распространяет и не хранит электронные версии произведений, а лишь бесплатно и без коммерческой выгоды (не требуя взамен платы,
SMS и т.д.) предоставляет доступ к создаваемому пользователями каталогу ссылок на торрент-файлы, которые содержат только списки хеш-сумм.
Убедительная просьба с жалобами обращаться напрямую к пользователю, разместившему торрент файл.

Вверх