Loading...
Error

Монстры на каникулах / Hotel Transylvania (Генндий Тартаковский) [2012 г., мультфильм, комедия, семейный, BDRip] Dub HQ Underverse

Статистика раздачи
Размер:  1,46 GB   |    Зарегистрирован:  3 года 10 месяцев   |    Скачан:  77 раз
Сидов:  1  |  0 KB/s  ]   Личеров:  0  |  0 KB/s  ]

* - сиды/пиры с внешних источников

   
 
Автор Сообщение

HQ Underverse 

29-Янв-2013 15:27

Монстры на каникулах / Hotel Transylvania


Год выпуска: 2012
Жанр: мультфильм, комедия, семейный
Страна: США
Режиссер: Генндий Тартаковский
Роли озвучивали: Адам Сэндлер, Энди Сэмберг, Селена Гомес, Кевин Джеймс, Фрэн Дрешер, Стив Бушеми, Молли Шеннон, Дэвид Спейд, Си-Ло, Джон Ловиц
Сюжет фильма:
Граф Дракула для себя и своей любимой дочки построил хорошо укрытый от посторонних глаз отель, куда монстры со всего света приезжают отдохнуть от семейных забот, повседневной суеты и, конечно… людей. Но вездесущие американские туристы проникают и сюда.

Качество видео: BDRip

Продолжительность: 01:31:31
Формат: avi
Видео: XviD, 720x384, 1819 kbps
Аудио #1: русский, дублированный [лицензия BD CEE], AC3 5.1, 448 kbps
Аудио #2: украинский, дублированный [лицензия BD CEE], AC3 5.1, 448 kbps (отдельным файлом)
Аудио #3: английский, оригинал, AC3 5.1, 448 kbps (отдельным файлом)
Субтитры #1: внешние, SRT, русский
Субтитры #2: внешние, SRT, английский

Код:

General
Complete name                    : D:\Video\Movies\Releases\Hotel.Transylvania.2012.BDRip.XviD.AC3.Rus.D.HQ.Underverse.avi
Format                           : AVI
Format/Info                      : Audio Video Interleave
File size                        : 1.46 GiB
Duration                         : 1h 31mn
Overall bit rate                 : 2 277 Kbps
Writing application              : VirtualDubMod 1.5.10.2 (build 2540/release)
Writing library                  : VirtualDubMod build 2540/release

Video
ID                               : 0
Format                           : MPEG-4 Visual
Format profile                   : Streaming Video@L1
Format settings, BVOP            : Yes
Format settings, QPel            : No
Format settings, GMC             : No warppoints
Format settings, Matrix          : Custom
Muxing mode                      : Packed bitstream
Codec ID                         : XVID
Codec ID/Hint                    : XviD
Duration                         : 1h 31mn
Bit rate                         : 1 820 Kbps
Width                            : 720 pixels
Height                           : 384 pixels
Display aspect ratio             : 1.875
Frame rate                       : 23.976 fps
Resolution                       : 24 bits
Colorimetry                      : 4:2:0
Scan type                        : Progressive
Bits/(Pixel*Frame)               : 0.274
Stream size                      : 1.16 GiB (80%)
Writing library                  : XviD 64

Audio
ID                               : 1
Format                           : AC-3
Format/Info                      : Audio Coding 3
Codec ID                         : 2000
Duration                         : 1h 31mn
Bit rate mode                    : Constant
Bit rate                         : 448 Kbps
Channel(s)                       : 6 channels
Channel positions                : Front: L C R, Surround: L R, LFE
Sampling rate                    : 48.0 KHz
Stream size                      : 293 MiB (20%)
Alignment                        : Split accross interleaves
Interleave, duration             : 42 ms (1.00 video frame)
Interleave, preload duration     : 500 ms
Title                            : Hotel.Transylvania.2012.AC3.Rus.Dub.5.1.448.kbps.HQ.Underverse.ac3

General
Complete name                    : D:\Video\Movies\Releases\Hotel.Transylvania.2012.BDRip.XviD.AC3.Rus.D.HQ.Underverse.Eng.ac3
Format                           : AC-3
Format/Info                      : Audio Coding 3
File size                        : 293 MiB
Duration                         : 1h 31mn
Overall bit rate                 : 448 Kbps

Audio
Format                           : AC-3
Format/Info                      : Audio Coding 3
Duration                         : 1h 31mn
Bit rate mode                    : Constant
Bit rate                         : 448 Kbps
Channel(s)                       : 6 channels
Channel positions                : Front: L C R, Surround: L R, LFE
Sampling rate                    : 48.0 KHz
Stream size                      : 293 MiB (100%)

General
Complete name                    : D:\Video\Movies\Releases\Hotel.Transylvania.2012.BDRip.XviD.AC3.Rus.D.HQ.Underverse.Ukr.ac3
Format                           : AC-3
Format/Info                      : Audio Coding 3
File size                        : 293 MiB
Duration                         : 1h 31mn
Overall bit rate                 : 448 Kbps

Audio
Format                           : AC-3
Format/Info                      : Audio Coding 3
Duration                         : 1h 31mn
Bit rate mode                    : Constant
Bit rate                         : 448 Kbps
Channel(s)                       : 6 channels
Channel positions                : Front: L C R, Surround: L R, LFE
Sampling rate                    : 48.0 KHz
Stream size                      : 293 MiB (100%)

Семпл: http://multi-up.com/824148

Релиз группы:

picpicpic
Для увеличения картинки щелкните мышкой по превью

Этот торрент недоступен для скачивания без регистрации, однако доступен по публичной magnet-ссылке (источники с публичных трекеров). Перед использованием ссылки прочтите, пожалуйста Пользовательское соглашение, а также как можно дольше оставайтесь на раздаче! Для того, чтобы скачать сам торрент-файл (который видит больше источников), а также для того, чтобы поблагодарить релизера, вам необходимо зарегистрироваться. Если регистрироваться лень - вы можете также попробовать скачать релиз по нашим партнерским ссылкам ниже.

[underverse.su].t23746.torrent
Трекер: Зарегистрирован   [ 29.01.2013 15:27 ]  

Статус: проверено (by garry at 29.01.2013 15:35)
Поблагодарили: 1 человек
Тип торрента: публичный - доступные источники с открытых трекеров: 
Размер: 1,46 GB (занимает 1/3 DVDR, для записи нужно 1 болванка DVDR/RW)
 
 
Похожие темы
Форум Тема Автор Торрент Отв. Посл. сооб.
Зарубежные мультфильмы Монстры на каникулах / Hotel Transylvania (Генндий Тартаковский) [2012 г., мультфильм, комедия, семейный, BDRip] Dub 90ytr90
179 | 0

0 | 1987

112

23.01.2013 19:18

Зарубежные мультфильмы Монстры на каникулах / Hotel Transylvania (Генндий Тартаковский) [2012 г., мультфильм, комедия, семейный, BDRip] Dub 90ytr90
15 | 0

0 | 614

17

23.01.2013 19:23

Зарубежные мультфильмы Монстры на каникулах / Hotel Transylvania (Геннадий Тартаковский) [2012 г., мультфильм, комедия, семейный, BDRip 720p] Dub + Original Чертёнок
0 | 0

1 | 795

34

25.01.2013 14:04

Зарубежные мультфильмы Монстры на острове 3D / Friends: Mononokeshima no Naki (Такаши Ямадзаки) [2011 г., мультфильм, фэнтези, приключения, DVDRip] Dub RG NewCinema
8 | 10

0 | 1166

70

22.03.2013 12:52

Зарубежные мультфильмы Монстры на острове / Friends: Mononokeshima no Naki (Такаши Ямадзаки) [2011 г., мультфильм, фэнтези, приключения, семейный, DVDRip AVC] DUB Печаль'ka
0 | 0

0 | 1201

43

29.05.2013 13:17

T Зарубежные мультфильмы Монстры на каникулах 2 / Hotel Transylvania 2 (Генндий Тартаковский / Genndy Tartakovsky) [2015 г., мультфильм, фэнтези, комедия, семейный, HDRip] Dub (iTunes) 90ytr90
53 | 1

0 | 347

4

20.01.2016 18:53

Зарубежные мультфильмы Монстры на каникулах 2 / Hotel Transylvania 2 (Генндий Тартаковский / Genndy Tartakovsky) [2015 г., мультфильм, фэнтези, комедия, семейный, BDRip-AVC] Dub + Subs 90ytr90
30 | 2

0 | 433

8

28.01.2016 16:36

Зарубежные мультфильмы Монстры на каникулах 2 / Hotel Transylvania 2 (Генндий Тартаковский / Genndy Tartakovsky) [2015 г., мультфильм, фэнтези, комедия, семейный, BDRip-AVC] Dub + Original (Eng) + Subs 90ytr90
122 | 3

0 | 501

11

28.01.2016 16:41

Зарубежные мультфильмы Монстры на каникулах 2 / Hotel Transylvania 2 (Генндий Тартаковский / Genndy Tartakovsky) [2015 г., мультфильм, фэнтези, комедия, семейный, BDRip] Dub 90ytr90
125 | 2

0 | 485

18

06.03.2016 08:38

Мультфильмы [DVD / HDDVD / BD / Remux] Монстры на каникулах / Hotel Transylvania (Генндий Тартаковский / Genndy Tartakovsky) [2012, мультфильм, комедия, семейный, BDRemux 1080p] Dub + AVO (Гаврилов) + Ukr + Original + subs uzi2009
13 | 0

0 | 725

5

29.04.2014 21:18


Яндекс.Метрика powered by Sphinx


В Н И М А Н И Е
Сайт не распространяет и не хранит электронные версии произведений, а лишь бесплатно и без коммерческой выгоды (не требуя взамен платы,
SMS и т.д.) предоставляет доступ к создаваемому пользователями каталогу ссылок на торрент-файлы, которые содержат только списки хеш-сумм.
Убедительная просьба с жалобами обращаться напрямую к пользователю, разместившему торрент файл.

Вверх