Loading...
Error

Вкус денег / Do-nui mat (Им Сан Су) [2012 г., драма, HDTVRip] VO

Статистика раздачи
Размер:  1,49 GB   |    Зарегистрирован:  3 года 10 месяцев   |    Скачан:  7 раз

Полного источника не было: 3 года 3 месяца

Сидов:  0  |  0 KB/s  ]   Личеров:  0  |  0 KB/s  ]

* - сиды/пиры с внешних источников

   
 
Автор Сообщение

RG NewCinema 

29-Янв-2013 10:08

Вкус денег / Do-nui mat


Год выпуска: 2012
Жанр: драма
Страна: Корея Южная
Режиссер: Им Сан Су
В ролях: Пэк Юн Сик, Хё-джин Ким, Ким Кан-у, Он Чжу Ван, Юн Ё Чун
Сюжет фильма:
Юнгджак — секретарь госпожи Баэк, которая стоит во главе влиятельной корейской промышленной корпорации. Ему поручено заниматься личными делами семьи с сомнительными моральными устоями. Попав в водоворот семейных тайн и властных отношений, Юнгджак должен сделать непростой выбор между своими принципами и возможностью быстро взобраться по ступеням социальной лестницы в надежде на лучшую жизнь. Герой должен понять, на чьей он стороне, в мире, где царят деньги, секс и власть…

  • Мировая премьера: 17 мая 2012

|
Качество видео: HDTVRip

Продолжительность: 01:54:51
Формат: AVI
Видео: XviD, 720x304, 1398 kbps
Аудио: русский, одноголосый закадровый [любительский], AC3 5.1, 448 kbps

Код:

General
Format                                   : AVI
Format/Info                              : Audio Video Interleave
Format profile                           : OpenDML
File size                                : 1.49 GiB
Duration                                 : 1h 54mn
Overall bit rate                         : 1 858 Kbps
Writing application                      : XviD4PSP 6.0 / 53.6.0

Video

ID                                       : 0
Format                                   : MPEG-4 Visual
Format profile                           : Advanced Simple@L5
Format settings, BVOP                    : No
Format settings, QPel                    : No
Format settings, GMC                     : No warppoints
Format settings, Matrix                  : Default (MPEG)
Codec ID                                 : XVID
Codec ID/Hint                            : XviD
Duration                                 : 1h 54mn
Bit rate                                 : 1 398 Kbps
Width                                    : 720 pixels
Height                                   : 304 pixels
Display aspect ratio                     : 2.40:1
Frame rate                               : 24.000 fps
Color space                              : YUV
Chroma subsampling                       : 4:2:0
Bit depth                                : 8 bits
Scan type                                : Progressive
Compression mode                         : Lossy
Bits/(Pixel*Frame)                       : 0.266
Stream size                              : 1.12 GiB (75%)
Title                                    : The.Taste.of.Money.2012.Blu-ray.720p.x264.DD51.MySilu
Writing library                          : XviD 64

Audio

ID                                       : 1
Format                                   : AC-3
Format/Info                              : Audio Coding 3
Mode extension                           : CM (complete main)
Format settings, Endianness              : Big
Codec ID                                 : 2000
Duration                                 : 1h 54mn
Bit rate mode                            : Constant
Bit rate                                 : 448 Kbps
Channel(s)                               : 6 channels
Channel positions                        : Front: L C R, Side: L R, LFE
Sampling rate                            : 48.0 KHz
Bit depth                                : 16 bits
Compression mode                         : Lossy
Stream size                              : 368 MiB (24%)
Alignment                                : Aligned on interleaves
Interleave, duration                     : 32 ms (0.77 video frame)
picpicpic
Для увеличения картинки щелкните мышкой по превью

Этот торрент недоступен для скачивания без регистрации, однако доступен по публичной magnet-ссылке (источники с публичных трекеров). Перед использованием ссылки прочтите, пожалуйста Пользовательское соглашение, а также как можно дольше оставайтесь на раздаче! Для того, чтобы скачать сам торрент-файл (который видит больше источников), а также для того, чтобы поблагодарить релизера, вам необходимо зарегистрироваться. Если регистрироваться лень - вы можете также попробовать скачать релиз по нашим партнерским ссылкам ниже.

[underverse.su].t23743.torrent
Трекер: Зарегистрирован   [ 29.01.2013 10:08 ]  

Статус: проверено (by Чертёнок at 29.01.2013 11:58)
Поблагодарили: пока никто не поблагодарил...
Тип торрента: публичный - доступные источники с открытых трекеров: 
Размер: 1,49 GB (занимает 0,34 DVDR, для записи нужно 1 болванка DVDR/RW)
 
 

Яндекс.Метрика powered by Sphinx


В Н И М А Н И Е
Сайт не распространяет и не хранит электронные версии произведений, а лишь бесплатно и без коммерческой выгоды (не требуя взамен платы,
SMS и т.д.) предоставляет доступ к создаваемому пользователями каталогу ссылок на торрент-файлы, которые содержат только списки хеш-сумм.
Убедительная просьба с жалобами обращаться напрямую к пользователю, разместившему торрент файл.

Вверх