Loading...
Error

Ельцин. Три дня в августе (Александр Мохов) [2011 г., драма, история, DVDRip-AVC]

Статистика раздачи
Размер:  1,49 GB   |    Зарегистрирован:  3 года 10 месяцев   |    Скачан:  15 раз

Полного источника не было: 2 года 1 месяц

Сидов:  0  |  0 KB/s  ]   Личеров:  0  |  0 KB/s  ]

* - сиды/пиры с внешних источников

   
 
Автор Сообщение

garry Пол:Муж

28-Янв-2013 10:22

Ельцин. Три дня в августе


Год выпуска: 2011
Жанр: драма, история
Страна: Россия
Режиссер: Александр Мохов
В ролях: Дмитрий Назаров, Александр Сирин, Владимир Стеклов, Александр Терешко, Елена Валюшкина, Феликс Антипов, Михаил Хмуров, Дарья Калмыкова, Александр Шаврин, Денис Коломоец
Сюжет фильма:
Фильм основан на реальных событиях. 1991 год. Борис Ельцин, находясь на даче, узнает о том, что Горбачев блокирован в Форосе… По заявлению советского руководства, образуется Государственный комитет по чрезвычайному положению в СССР (ГКЧП СССР), а Янаев объявлен и. о. Президента СССР. Многие советуют бежать из страны, но Ельцин принимает решение — он едет в Москву к Белому дому, чтобы возглавить оппозицию…

  • Российская премьера: 16 сентября 2011

Качество видео: DVDRip-AVC

Продолжительность: 01:36:29
Формат: MKV
Видео: x264, 720x432@768x432, 2000 kbps
Аудио: русский, оригинал, AC3 2.0, 192 kbps

Код:

General
 Complete name : E:\...\Ельцин.Три.дня.в.августе.2011.PAL.DVDRip.x264.DD5.1.Rus-E76.mkv
 Format : Matroska
 Format version : Version 2
 File size : 1.49 GiB
 Duration : 1h 36mn
 Overall bit rate : 2 204 Kbps
 Movie name : Ельцин.Три.дня.в.августе.PAL.DVDRip.x264.DD5.1.Rus-E76
 Encoded date : UTC 2012-12-12 02:36:27
 Writing application : mkvmerge v5.6.0 ('Kenya Kane') built on May 27 2012 16:44:04
 Writing library : libebml v1.2.3 + libmatroska v1.3.0

Video
 ID : 1
 Format : AVC
 Format/Info : Advanced Video Codec
 Format profile : High@L4.1
 Format settings, CABAC : Yes
 Format settings, ReFrames : 12 frames
 Codec ID : V_MPEG4/ISO/AVC
 Duration : 1h 36mn
 Bit rate : 1 968 Kbps
 Width : 720 pixels
 Height : 432 pixels
 Display aspect ratio : 16:9
 Original display aspect ratio : 1.667
 Frame rate mode : Constant
 Frame rate : 25.000 fps
 Color space : YUV
 Chroma subsampling : 4:2:0
 Bit depth : 8 bits
 Scan type : Progressive
 Bits/(Pixel*Frame) : 0.253
 Stream size : 1.33 GiB (89%)
 Title : Encode by Enclave76
 Writing library : x264 core 129 r2230kMod 1cffe9f
 Encoding settings : cabac=1 / ref=12 / deblock=1:-3:-3 / analyse=0x3:0x133 / me=umh / subme=11 / psy=1 / fade_compensate=0.00 / psy_rd=1.00:0.00 / mixed_ref=1 / me_range=48 / chroma_me=1 / trellis=2 / 8x8dct=1 / cqm=0 / deadzone=21,11 / fast_pskip=1 / chroma_qp_offset=-2 / threads=6 / lookahead_threads=1 / sliced_threads=0 / nr=0 / decimate=1 / interlaced=0 / bluray_compat=0 / constrained_intra=0 / bframes=10 / b_pyramid=2 / b_adapt=2 / b_bias=0 / direct=1 / weightb=1 / open_gop=0 / weightp=2 / keyint=250 / keyint_min=25 / scenecut=40 / intra_refresh=0 / rc_lookahead=40 / rc=crf / mbtree=0 / crf=17.7500 / qcomp=0.65 / qpmin=0 / qpmax=69 / qpstep=4 / vbv_maxrate=17500 / vbv_bufsize=14000 / crf_max=0.0 / nal_hrd=none / ip_ratio=1.40 / pb_ratio=1.30 / aq=1:1.00
 Language : English
 Default : No
 Forced : No
 Matrix coefficients : BT.601

Audio
 ID : 2
 Format : AC-3
 Format/Info : Audio Coding 3
 Mode extension : CM (complete main)
 Format settings, Endianness : Big
 Codec ID : A_AC3
 Duration : 1h 36mn
 Bit rate mode : Constant
 Bit rate : 192 Kbps
 Channel(s) : 2 channels
 Channel positions : Front: L R
 Sampling rate : 48.0 KHz
 Bit depth : 16 bits
 Compression mode : Lossy
 Stream size : 133 MiB (9%)
 Language : Russian
 Default : Yes
 Forced : No

Menu
 00:00:00.000 : ru:Chapter 01
 00:12:26.400 : ru:Chapter 02
 ...
 01:24:45.840 : ru:Chapter 09
Семпл: http://multi-up.com/802361

Релиз группы:

picpicpic
Для увеличения картинки щелкните мышкой по превью

Этот торрент недоступен для скачивания без регистрации, однако доступен по публичной magnet-ссылке (источники с публичных трекеров). Перед использованием ссылки прочтите, пожалуйста Пользовательское соглашение, а также как можно дольше оставайтесь на раздаче! Для того, чтобы скачать сам торрент-файл (который видит больше источников), а также для того, чтобы поблагодарить релизера, вам необходимо зарегистрироваться. Если регистрироваться лень - вы можете также попробовать скачать релиз по нашим партнерским ссылкам ниже.

[underverse.su].t23718.torrent
Трекер: Зарегистрирован   [ 28.01.2013 10:22 ]  

Статус: проверено (by garry at 28.01.2013 10:22)
Поблагодарили: пока никто не поблагодарил...
Тип торрента: публичный - доступные источники с открытых трекеров: 
Размер: 1,49 GB (занимает 0,34 DVDR, для записи нужно 1 болванка DVDR/RW)
 
 
Похожие темы
Форум Тема Автор Торрент Отв. Посл. сооб.
Наше кино [DVDRip, Low-Res HDRip, и т.д.] Ельцин. Три дня в августе (Александр Мохов, Алексей Пивоваров) [2011 г., драма, история, DVDRip] 90ytr90
16 | 0

0 | 703

10

10.12.2012 19:00

pwi1302 Пол:Муж

28-Янв-2013 22:56

Эт чтоли нам теперь будут сказки показывать как просрали великую державу? Да вешать их нужно пока своей смертью не подохли. А за одно прихватить всю родню, награбленое же вернуть народу!

Яндекс.Метрика powered by Sphinx


В Н И М А Н И Е
Сайт не распространяет и не хранит электронные версии произведений, а лишь бесплатно и без коммерческой выгоды (не требуя взамен платы,
SMS и т.д.) предоставляет доступ к создаваемому пользователями каталогу ссылок на торрент-файлы, которые содержат только списки хеш-сумм.
Убедительная просьба с жалобами обращаться напрямую к пользователю, разместившему торрент файл.

Вверх