Loading...
Error

Белые люди не умеют прыгать / White Men Can`t Jump (Рон Шелтон) [1992 г., драма, комедия, спорт, BDRip-AVC] MVO + 2xAVO + Original

Статистика раздачи
Размер:  4,37 GB   |    Зарегистрирован:  3 года 10 месяцев   |    Скачан:  2 раза

Полного источника не было: 3 года 9 месяцев

Сидов:  0  |  0 KB/s  ]   Личеров:  0  |  0 KB/s  ]

* - сиды/пиры с внешних источников

   
 
Автор Сообщение

garry Пол:Муж

28-Янв-2013 10:14

Белые люди не умеют прыгать / White Men Can`t Jump


Год выпуска: 1992
Жанр: драма, комедия, спорт
Страна: США
Режиссер: Рон Шелтон
В ролях: Уэсли Снайпс, Вуди Харрельсон, Рози Перес, Тайра Феррелл, Силк Козарт, Кадим Хардисон, Эрнест Харден мл., Джон Маршалл Джонс, Маркус Джонсон, Дэвид Роберсон
Сюжет фильма:
Действие фильма переносит нас на раскаленный асфальт баскетбольных площадок Лос-Анджелеса. Идет игра — игра на деньги. А там где деньги всегда найдется место парочке жуликов, готовых обмануть доверчивого лоха.

Билли, шулер от баскетбола, беззастенчиво пользуется общепринятым мнением, что белый не может играть в баскетбол, не может прыгать. Все складывается отлично, до тех пор пока не приходит время расплачиваться с долгами, наделанными еще в университете. Нужно срочно собрать кругленькую сумму, а в одиночку это проблематично.

К этой проблеме присоединяется еще одна, Сидней — чернокожий мошенник. Звезда уличного баскетбола. Похититель женских сердец.

Между двумя игроками завязывается нешуточная борьба за звание лучшего баскетболиста, ловеласа, самого удачливого кидалы. Борьба идет до тех пор, пока они не понимают, что в паре можно заработать гораздо больше денег, чем по одиночке.

  • Мировая премьера: 27 марта 1992

/
Качество видео: BDRip-AVC

Продолжительность: 01:56:53
Формат: MKV
Видео: x264, 1104x598, 4152 kbps
Аудио #1: русский, многоголосый закадровый [профессиональный], AC3 5.1, 384 kbps
Аудио #2: русский, одноголосый закадровый [авторский, Живов], AC3 2.0, 192 kbps
Аудио #3: английский, оригинал, AC3 5.1, 448 kbps
Аудио #4: русский, одноголосый закадровый [авторский, Дохалов], AC3 2.0, 192 kbps (отдельно)
Субтитры #1: тип: вшитые отключаемые, русский, формат: SRT
Субтитры #2: тип: вшитые отключаемые, английский, формат: SRT

Код:

General
 Unique ID : 193950238331679229347318401096451758308 (0x91E975094024221D9FC29299C2C618E4)
 Complete name : F:\FILMS\___ - R - ___\White Men Can't Jump\White Men Can't Jump.mkv
 Format : Matroska
 Format version : Version 2
 File size : 4.21 GiB
 Duration : 1h 56mn
 Overall bit rate : 5 157 Kbps
 Encoded date : UTC 2012-12-16 16:10:48
 Writing application : mkvmerge v5.6.0 ('Kenya Kane') built on May 27 2012 16:44:04
 Writing library : libebml v1.2.3 + libmatroska v1.3.0

Video
 ID : 1
 Format : AVC
 Format/Info : Advanced Video Codec
 Format profile : High@L4.1
 Format settings, CABAC : Yes
 Format settings, ReFrames : 12 frames
 Codec ID : V_MPEG4/ISO/AVC
 Duration : 1h 56mn
 Bit rate : 4 135 Kbps
 Width : 1 104 pixels
 Height : 598 pixels
 Display aspect ratio : 1.85:1
 Frame rate mode : Constant
 Frame rate : 23.976 fps
 Color space : YUV
 Chroma subsampling : 4:2:0
 Bit depth : 8 bits
 Scan type : Progressive
 Bits/(Pixel*Frame) : 0.261
 Stream size : 3.29 GiB (78%)
 Title : AVC 1104x598@23.976 fps ~4135 kBit/s 2-pass High 4.1 1.85:1
 Writing library : x264 core 125 r2200bm 999b753
 Encoding settings : cabac=1 / ref=12 / deblock=1:-1:-1 / analyse=0x3:0x133 / me=umh / subme=10 / psy=1 / psy_rd=0.90:0.15 / mixed_ref=1 / me_range=48 / chroma_me=1 / trellis=2 / 8x8dct=1 / cqm=0 / deadzone=21,11 / fast_pskip=0 / chroma_qp_offset=-3 / threads=6 / lookahead_threads=1 / sliced_threads=0 / nr=0 / decimate=1 / interlaced=0 / bluray_compat=0 / constrained_intra=0 / bframes=12 / b_pyramid=2 / b_adapt=2 / b_bias=0 / direct=3 / weightb=1 / open_gop=0 / weightp=2 / keyint=250 / keyint_min=23 / scenecut=40 / intra_refresh=0 / rc=2pass / mbtree=0 / bitrate=4135 / ratetol=1.0 / qcomp=0.90 / qpmin=0 / qpmax=69 / qpstep=4 / cplxblur=50.0 / qblur=0.5 / ip_ratio=1.45 / pb_ratio=1.25 / aq=2:0.75
 Language : English
 Default : Yes
 Forced : No

Audio #1
 ID : 2
 Format : AC-3
 Format/Info : Audio Coding 3
 Mode extension : CM (complete main)
 Format settings, Endianness : Big
 Codec ID : A_AC3
 Duration : 1h 56mn
 Bit rate mode : Constant
 Bit rate : 384 Kbps
 Channel(s) : 6 channels
 Channel positions : Front: L C R, Side: L R, LFE
 Sampling rate : 48.0 KHz
 Bit depth : 16 bits
 Compression mode : Lossy
 Stream size : 321 MiB (7%)
 Title : MVO AC3 384 kBit/s 48 kHz 5.1 DD
 Language : Russian
 Default : Yes
 Forced : No

Audio #2
 ID : 3
 Format : AC-3
 Format/Info : Audio Coding 3
 Mode extension : CM (complete main)
 Format settings, Endianness : Big
 Codec ID : A_AC3
 Duration : 1h 56mn
 Bit rate mode : Constant
 Bit rate : 192 Kbps
 Channel(s) : 2 channels
 Channel positions : Front: L R
 Sampling rate : 48.0 KHz
 Bit depth : 16 bits
 Compression mode : Lossy
 Stream size : 161 MiB (4%)
 Title : AVO Живов AC3 192 kBit/s 48 kHz 2.0 DD
 Language : Russian
 Default : No
 Forced : No

Audio #3
 ID : 4
 Format : AC-3
 Format/Info : Audio Coding 3
 Mode extension : CM (complete main)
 Format settings, Endianness : Big
 Codec ID : A_AC3
 Duration : 1h 56mn
 Bit rate mode : Constant
 Bit rate : 448 Kbps
 Channel(s) : 6 channels
 Channel positions : Front: L C R, Side: L R, LFE
 Sampling rate : 48.0 KHz
 Bit depth : 16 bits
 Compression mode : Lossy
 Stream size : 375 MiB (9%)
 Title : English AC3 448 kBit/s 48 kHz 5.1 DD
 Language : English
 Default : No
 Forced : No

Text #1
 ID : 5
 Format : UTF-8
 Codec ID : S_TEXT/UTF8
 Codec ID/Info : UTF-8 Plain Text
 Language : Russian
 Default : No
 Forced : No

Text #2
 ID : 6
 Format : UTF-8
 Codec ID : S_TEXT/UTF8
 Codec ID/Info : UTF-8 Plain Text
 Language : English
 Default : No
 Forced : No
Семпл: http://narod.ru/disk/64572371001.31f4eddea943fcee858606bcdab518d3/White%20Men%20Can't%20Jump%20(1)-002.mkv.html

Релиз группы:

picpicpic
Для увеличения картинки щелкните мышкой по превью

Этот торрент недоступен для скачивания без регистрации, однако доступен по публичной magnet-ссылке (источники с публичных трекеров). Перед использованием ссылки прочтите, пожалуйста Пользовательское соглашение, а также как можно дольше оставайтесь на раздаче! Для того, чтобы скачать сам торрент-файл (который видит больше источников), а также для того, чтобы поблагодарить релизера, вам необходимо зарегистрироваться. Если регистрироваться лень - вы можете также попробовать скачать релиз по нашим партнерским ссылкам ниже.

[underverse.su].t23717.torrent
Трекер: Зарегистрирован   [ 28.01.2013 10:14 ]  

Статус: проверено (by garry at 28.01.2013 10:15)
Поблагодарили: пока никто не поблагодарил...
Тип торрента: публичный - доступные источники с открытых трекеров: 
Размер: 4,37 GB (занимает 1 DVDR, для записи нужно 1 болванка DVDR/RW)
 
 

Яндекс.Метрика powered by Sphinx


В Н И М А Н И Е
Сайт не распространяет и не хранит электронные версии произведений, а лишь бесплатно и без коммерческой выгоды (не требуя взамен платы,
SMS и т.д.) предоставляет доступ к создаваемому пользователями каталогу ссылок на торрент-файлы, которые содержат только списки хеш-сумм.
Убедительная просьба с жалобами обращаться напрямую к пользователю, разместившему торрент файл.

Вверх