Loading...
Error

Робокоп / RoboCop [Remastered Theatrical Cut] (Пол Верховен) [1987 г., фантастика, боевик, триллер, BDRip-AVC] MVO + DVO + AVO + Original

Статистика раздачи
Размер:  4,36 GB   |    Зарегистрирован:  3 года 10 месяцев   |    Скачан:  8 раз

Полного источника не было: 5 месяцев 21 день

Сидов:  0  |  0 KB/s  ]   Личеров:  0  |  0 KB/s  ]

* - сиды/пиры с внешних источников

   
 
Автор Сообщение

garry Пол:Муж

28-Янв-2013 09:41

Робокоп / RoboCop


Год выпуска: 1987
Жанр: фантастика, боевик, триллер
Страна: США
Режиссер: Пол Верховен
В ролях: Питер Уэллер, Нэнси Аллен, Дэн О’Херлихи, Ронни Кокс, Кертвуд Смит, Мигель Феррер, Роберт Дукуй, Рэй Уайз, Фелтон Перри, Пол МакКрейн
Сюжет фильма:
После гибели одного из лучших полицейских врачи-экспериментаторы создают из него неуязвимого киборга Робокопа, который в одиночку борется с бандой преступников. Однако прочная броня не спасает Робокопа от мучительных, обрывочных воспоминаний о прошлом: он постоянно видит кошмарные сны, в которых погибает от рук жестоких преступников. Теперь он не только ждёт правосудия,… но и жаждет мести!

  • Мировая премьера: 17 июля 1987

/
Качество видео: BDRip-AVC

Продолжительность: 01:42:46
Формат: MKV
Видео: x264, 1088x590, 4295 kbps
Аудио #1: русский, многоголосый закадровый [профессиональный, Супербит], AC3 5.1, 448 kbps
Аудио #2: русский, двухголосый закадровый [профессиональный, Киномания], AC3 5.1, 448 kbps
Аудио #3: русский, одноголосый закадровый [авторский, П. Карцев], AC3 5.1, 448 kbps
Аудио #4: английский, оригинал, AC3 5.1, 448 kbps (отдельно)
Субтитры #1: тип: вшитые отключаемые, русский, формат: SRT
Субтитры #2: тип: вшитые отключаемые, русский, формат: SRT
Субтитры #3: тип: вшитые отключаемые, английский, формат: SRT

Код:

General
 Unique ID : 215055535639418154976602767108554914309 (0xA1CA308846DD6233A1ED999DAF347A05)
 Complete name : F:\FILMS\___ - R - ___\RoboCop\RoboCop.mkv
 Format : Matroska
 Format version : Version 2
 File size : 4.04 GiB
 Duration : 1h 42mn
 Overall bit rate : 5 631 Kbps
 Encoded date : UTC 2012-12-15 08:23:56
 Writing application : mkvmerge v5.6.0 ('Kenya Kane') built on May 27 2012 16:44:04
 Writing library : libebml v1.2.3 + libmatroska v1.3.0

Video
 ID : 1
 Format : AVC
 Format/Info : Advanced Video Codec
 Format profile : High@L4.1
 Format settings, CABAC : Yes
 Format settings, ReFrames : 13 frames
 Codec ID : V_MPEG4/ISO/AVC
 Duration : 1h 42mn
 Bit rate : 4 295 Kbps
 Width : 1 088 pixels
 Height : 590 pixels
 Display aspect ratio : 1.85:1
 Frame rate mode : Constant
 Frame rate : 23.976 fps
 Color space : YUV
 Chroma subsampling : 4:2:0
 Bit depth : 8 bits
 Scan type : Progressive
 Bits/(Pixel*Frame) : 0.279
 Stream size : 3.00 GiB (74%)
 Title : AVC 1088x590@23.976 fps ~ 4295 kBit/s 2-pass High 4.1 1.85:1
 Writing library : x264 core 125 r2200bm 999b753
 Encoding settings : cabac=1 / ref=13 / deblock=1:-1:-1 / analyse=0x3:0x133 / me=umh / subme=10 / psy=1 / psy_rd=0.70:0.05 / mixed_ref=1 / me_range=48 / chroma_me=1 / trellis=2 / 8x8dct=1 / cqm=0 / deadzone=21,11 / fast_pskip=0 / chroma_qp_offset=-3 / threads=6 / lookahead_threads=1 / sliced_threads=0 / nr=0 / decimate=1 / interlaced=0 / bluray_compat=0 / constrained_intra=0 / bframes=10 / b_pyramid=2 / b_adapt=2 / b_bias=0 / direct=3 / weightb=1 / open_gop=0 / weightp=2 / keyint=250 / keyint_min=23 / scenecut=40 / intra_refresh=0 / rc=2pass / mbtree=0 / bitrate=4295 / ratetol=1.0 / qcomp=0.90 / qpmin=0 / qpmax=69 / qpstep=4 / cplxblur=50.0 / qblur=0.5 / ip_ratio=1.45 / pb_ratio=1.55 / aq=2:1.30
 Language : English
 Default : Yes
 Forced : No

Audio #1
 ID : 2
 Format : AC-3
 Format/Info : Audio Coding 3
 Mode extension : CM (complete main)
 Format settings, Endianness : Big
 Codec ID : A_AC3
 Duration : 1h 42mn
 Bit rate mode : Constant
 Bit rate : 448 Kbps
 Channel(s) : 6 channels
 Channel positions : Front: L C R, Side: L R, LFE
 Sampling rate : 48.0 KHz
 Bit depth : 16 bits
 Compression mode : Lossy
 Stream size : 329 MiB (8%)
 Title : MVO супербит AC3 448 kBit/s 48 kHz 5.1 DD
 Language : Russian
 Default : Yes
 Forced : No

Audio #2
 ID : 3
 Format : AC-3
 Format/Info : Audio Coding 3
 Mode extension : CM (complete main)
 Format settings, Endianness : Big
 Codec ID : A_AC3
 Duration : 1h 42mn
 Bit rate mode : Constant
 Bit rate : 448 Kbps
 Channel(s) : 6 channels
 Channel positions : Front: L C R, Side: L R, LFE
 Sampling rate : 48.0 KHz
 Bit depth : 16 bits
 Compression mode : Lossy
 Stream size : 329 MiB (8%)
 Title : DVO Киномания AC3 448 kBit/s 48 kHz 5.1 DD
 Language : Russian
 Default : No
 Forced : No

Audio #3
 ID : 4
 Format : AC-3
 Format/Info : Audio Coding 3
 Mode extension : CM (complete main)
 Format settings, Endianness : Big
 Codec ID : A_AC3
 Duration : 1h 42mn
 Bit rate mode : Constant
 Bit rate : 448 Kbps
 Channel(s) : 6 channels
 Channel positions : Front: L C R, Side: L R, LFE
 Sampling rate : 48.0 KHz
 Bit depth : 16 bits
 Compression mode : Lossy
 Stream size : 329 MiB (8%)
 Title : AVO Карцев AC3 448 kBit/s 48 kHz 5.1 DD
 Language : Russian
 Default : No
 Forced : No

Text #1
 ID : 5
 Format : UTF-8
 Codec ID : S_TEXT/UTF8
 Codec ID/Info : UTF-8 Plain Text
 Title : лицензия
 Language : Russian
 Default : No
 Forced : No

Text #2
 ID : 6
 Format : UTF-8
 Codec ID : S_TEXT/UTF8
 Codec ID/Info : UTF-8 Plain Text
 Title : Поздняков
 Language : Russian
 Default : No
 Forced : No

Text #3
 ID : 7
 Format : UTF-8
 Codec ID : S_TEXT/UTF8
 Codec ID/Info : UTF-8 Plain Text
 Language : English
 Default : No
 Forced : No
Семпл: http://narod.ru/disk/64509188001.e1c8686d2d9b9bacf07ea7ccb509d04b/RoboCop%20(1)-002.mkv.html

Релиз группы:

picpicpic
Для увеличения картинки щелкните мышкой по превью

Этот торрент недоступен для скачивания без регистрации, однако доступен по публичной magnet-ссылке (источники с публичных трекеров). Перед использованием ссылки прочтите, пожалуйста Пользовательское соглашение, а также как можно дольше оставайтесь на раздаче! Для того, чтобы скачать сам торрент-файл (который видит больше источников), а также для того, чтобы поблагодарить релизера, вам необходимо зарегистрироваться. Если регистрироваться лень - вы можете также попробовать скачать релиз по нашим партнерским ссылкам ниже.

[underverse.su].t23714.torrent
Трекер: Зарегистрирован   [ 28.01.2013 09:41 ]  

Статус: проверено (by garry at 28.01.2013 09:42)
Поблагодарили: пока никто не поблагодарил...
Тип торрента: публичный - доступные источники с открытых трекеров: 
Размер: 4,36 GB (занимает 1 DVDR, для записи нужно 1 болванка DVDR/RW)
 
 
Похожие темы
Форум Тема Автор Торрент Отв. Посл. сооб.
Зарубежное кино [DVDRip, Low-Res HDRip, и т.д.] Робокоп / RoboCop [Remastered Director's Cut] (Пол Верховен / Paul Verhoeven) [1987 г., фантастика, боевик, криминал, BDRip] MVO + Original garry
3 | 0

0 | 716

24

04.02.2014 17:49

T Зарубежное кино [DVDRip, Low-Res HDRip, и т.д.] РобоКоп / RoboCop (Жозе Падилья) [2014 г., фантастика, боевик, криминал, WEB-DLRip] Dub (чистый звук) 90ytr90
0 | 0

0 | 2063

82

03.05.2014 08:53

T Зарубежное кино [DVDRip, Low-Res HDRip, и т.д.] РобоКоп / RoboCop (Жозе Падилья) [2014 г., фантастика, боевик, криминал, WEB-DLRip] Dub (чистый звук) + Original (Eng) 90ytr90
19 | 0

0 | 1879

14

03.05.2014 08:59

T Зарубежное кино [DVDRip, Low-Res HDRip, и т.д.] РобоКоп / RoboCop (Жозе Падилья) [2014 г., фантастика, боевик, криминал, WEB-DLRip] Dub (iTunes) 90ytr90
0 | 0

0 | 2239

11

06.05.2014 04:12

T Зарубежное кино [DVDRip, Low-Res HDRip, и т.д.] РобоКоп / RoboCop (Жозе Падилья) [2014 г., фантастика, боевик, криминал, WEB-DLRip] Dub (iTunes) + Original (Eng) 90ytr90
47 | 1

0 | 2186

10

06.05.2014 04:17

T Зарубежное кино [DVDRip, Low-Res HDRip, и т.д.] РобоКоп / RoboCop (Жозе Падилья) [2014 г., фантастика, боевик, криминал, WEB-DLRip] Dub (iTunes) 90ytr90
15 | 0

0 | 2281

10

06.05.2014 04:29

Зарубежное кино [DVDRip, Low-Res HDRip, и т.д.] РобоКоп / RoboCop (Жозе Падилья) [2014 г., фантастика, боевик, криминал, HDRip] AVO [Гаврилов] Паукан
1 | 0

0 | 1209

30

07.07.2014 10:10

Зарубежное кино HQ Робокоп / Robocop (Жозе Падилья) [2014 г., фантастика, боевик, криминал, BDRip] Dub (Rus,Ukr) + Original + Sub (Rus,Ukr,Eng) HQ Underverse HQ Underverse
0 | 0

0 | 2043

165

23.05.2014 08:32

Зарубежное кино [DVD / HDDVD / BD / Remux] Робокоп / Робот-полицейский / RoboCop (Пол Верховен / Paul Verhoeven) [1987, фантастика, боевик, криминал, Blu-ray disc] [Remastered Director's Cut] MVO + Sub Rus, Eng + Original Eng uzi2009
3 | 1

1 | 1770

2

17.02.2014 00:40

T Зарубежное кино [HDDVDRip / BDRip / WEB-DL / HDTV 1080/720р] РобоКоп / RoboCop (Жозе Падилья) [2014 г., фантастика, боевик, криминал, WEB-DL 720p] Dub (чистый звук) + Original (Eng) 90ytr90
0 | 0

0 | 551

30

03.05.2014 09:08


Яндекс.Метрика powered by Sphinx


В Н И М А Н И Е
Сайт не распространяет и не хранит электронные версии произведений, а лишь бесплатно и без коммерческой выгоды (не требуя взамен платы,
SMS и т.д.) предоставляет доступ к создаваемому пользователями каталогу ссылок на торрент-файлы, которые содержат только списки хеш-сумм.
Убедительная просьба с жалобами обращаться напрямую к пользователю, разместившему торрент файл.

Вверх