Loading...
Error

Судья Дредд 3D / Dredd (Пит Трэвис) [2012 г., фантастика, боевик, триллер, криминал, BDRip] Dub + Original + MVO + Subs HQ Underverse

Статистика раздачи
Размер:  2,17 GB   |    Зарегистрирован:  3 года 10 месяцев   |    Скачан:  55 раз
Сидов:  1  |  0 KB/s  ]   Личеров:  0  |  0 KB/s  ]

* - сиды/пиры с внешних источников

   
 
Автор Сообщение

HQ Underverse 

28-Янв-2013 08:56

Судья Дредд 3D / Dredd


Год выпуска: 2012
Жанр: фантастика, боевик, триллер, криминал
Страна: ЮАР , Великобритания
Режиссер: Пит Трэвис
В ролях: Карл Урбан, Оливия Тирлби, Лина Хиди, Вуд Харрис, Андил Мнгади, Портес Ксандо Стинкамп, Джейсон Коуп, Эмма Бреши, Рэки Айола, Тамер Барджаг
Сюжет фильма:
Будущее не столь красочно и великолепно, каким его представляют современные люди. Через несколько столетий человечество окажется на грани самоуничтожения, захлёбываясь в кровавых преступлениях, смертельных грехах и беспорядочных убийствах. Старую систему правосудия будет невозможно использовать — анархия, всеобщие беспорядки вынуждают ещё сохранившуюся власть, тем не менее, потерявшую всякий авторитет и легитимность, пойти на отчаянные крайние меры и ввести институт Судей — универсальных полицейских, правоприменителей, а по совместительству — и прокуроров, которые упростили бы весь процесс задержания, следствия и судебных тяжб, совмещая в одном лице все должности блюстителей и защитников правопорядка.

Негодяи, подонки, вконец обнаглевшие и распоясавшиеся преступники и бандитские группировки всё равно не желают сдавать свои упрочившие позиции, опасаясь лишь одного — встречи с легендарным Судьёй Дреддом, пересажавшим или расстрелявшим не одну сотню насильников, террористов и жадных до человеческих страданий маньяков. В то время, как беспорядки и бесчинства бушуют на улицах города, Дредд спешит вернуть порядок, Закон и тишину, которым, кажется, уже никогда не обрести свою былую полноту, мощь и силу…

  • Мировая премьера: 11 июля 2012
  • Российская премьера: 20 сентября 2012, «Централ Партнершип» 3D

/
Качество видео: BDRip

Продолжительность: 01:35:51
Формат: avi
Видео: XviD, 720x304, 2327 kbps
Аудио #1: русский, дублированный [лицензия], AC3 5.1, 448 kbps
Аудио #2: английский, оригинал, AC3 5.1, 448 kbps
Аудио #3: украинский, многоголосый закадровый [профессиональный, Омікрон], AC3 5.1, 448 kbps (отдельно)
Субтитры #1: внешние, SRT, русский
Субтитры #2: внешние, SRT, английский
Субтитры #3: внешние, SRT, английский SDH
Субтитры #4: внешние, SRT, английский SDH Color

Код:

General
Complete name                    : D:\Video\Movies\Releases\Dredd.2012.BDRip.XviD.AC3.Rus.D.Eng.O.HQ.Underverse.avi
Format                           : AVI
Format/Info                      : Audio Video Interleave
Format profile                   : OpenDML
File size                        : 2.17 GiB
Duration                         : 1h 35mn
Overall bit rate                 : 3 241 Kbps
Writing application              : VirtualDubMod 1.5.10.2 (build 2540/release)
Writing library                  : VirtualDubMod build 2540/release

Video
ID                               : 0
Format                           : MPEG-4 Visual
Format profile                   : Streaming Video@L1
Format settings, BVOP            : Yes
Format settings, QPel            : No
Format settings, GMC             : No warppoints
Format settings, Matrix          : Custom
Muxing mode                      : Packed bitstream
Codec ID                         : XVID
Codec ID/Hint                    : XviD
Duration                         : 1h 35mn
Bit rate                         : 2 327 Kbps
Width                            : 720 pixels
Height                           : 304 pixels
Display aspect ratio             : 2.35
Frame rate                       : 23.976 fps
Resolution                       : 24 bits
Colorimetry                      : 4:2:0
Scan type                        : Progressive
Bits/(Pixel*Frame)               : 0.443
Stream size                      : 1.56 GiB (72%)
Writing library                  : XviD 64

Audio #1
ID                               : 1
Format                           : AC-3
Format/Info                      : Audio Coding 3
Codec ID                         : 2000
Duration                         : 1h 35mn
Bit rate mode                    : Constant
Bit rate                         : 448 Kbps
Channel(s)                       : 6 channels
Channel positions                : Front: L C R, Surround: L R, LFE
Sampling rate                    : 48.0 KHz
Stream size                      : 307 MiB (14%)
Alignment                        : Split accross interleaves
Interleave, duration             : 42 ms (1.00 video frame)
Interleave, preload duration     : 500 ms
Title                            : Dredd.2012.AC3.Rus.Dub.5.1.448.kbps.HQ.Underverse.ac3

Audio #2
ID                               : 2
Format                           : AC-3
Format/Info                      : Audio Coding 3
Codec ID                         : 2000
Duration                         : 1h 35mn
Bit rate mode                    : Constant
Bit rate                         : 448 Kbps
Channel(s)                       : 6 channels
Channel positions                : Front: L C R, Surround: L R, LFE
Sampling rate                    : 48.0 KHz
Stream size                      : 307 MiB (14%)
Alignment                        : Split accross interleaves
Interleave, duration             : 42 ms (1.00 video frame)
Interleave, preload duration     : 500 ms
Title                            : Dredd.2012.AC3.Eng.O.5.1.448.kbps.HQ.Underverse.ac3

General
Complete name                    : D:\Video\Movies\Releases\Dredd.2012.BDRip.XviD.AC3.Rus.D.Eng.O.HQ.Underverse.Ukr.ac3
Format                           : AC-3
Format/Info                      : Audio Coding 3
File size                        : 307 MiB
Duration                         : 1h 35mn
Overall bit rate                 : 448 Kbps

Audio
Format                           : AC-3
Format/Info                      : Audio Coding 3
Duration                         : 1h 35mn
Bit rate mode                    : Constant
Bit rate                         : 448 Kbps
Channel(s)                       : 6 channels
Channel positions                : Front: L C R, Surround: L R, LFE
Sampling rate                    : 48.0 KHz
Stream size                      : 307 MiB (100%)

Семпл: http://multi-up.com/823374

Релиз группы:

picpicpic
Для увеличения картинки щелкните мышкой по превью

Этот торрент недоступен для скачивания без регистрации, однако доступен по публичной magnet-ссылке (источники с публичных трекеров). Перед использованием ссылки прочтите, пожалуйста Пользовательское соглашение, а также как можно дольше оставайтесь на раздаче! Для того, чтобы скачать сам торрент-файл (который видит больше источников), а также для того, чтобы поблагодарить релизера, вам необходимо зарегистрироваться. Если регистрироваться лень - вы можете также попробовать скачать релиз по нашим партнерским ссылкам ниже.

[underverse.su].t23712.torrent
Трекер: Зарегистрирован   [ 28.01.2013 08:56 ]  

Статус: проверено (by garry at 28.01.2013 09:20)
Поблагодарили: 3 человека
Тип торрента: публичный - доступные источники с открытых трекеров: 
Размер: 2,17 GB (занимает 1/2 DVDR, для записи нужно 1 болванка DVDR/RW)
 
 
Похожие темы
Форум Тема Автор Торрент Отв. Посл. сооб.
Зарубежное кино [DVDRip, Low-Res HDRip, и т.д.] Судья Дредд / Dredd (Пит Трэвис / Pete Travis) [2012, фантастика, боевик, триллер, криминал, HDRip-AVC] AVO (Сербин) + Subs (eng) Garnett
0 | 0

0 | 619

17

08.01.2013 11:20

Зарубежное кино [DVDRip, Low-Res HDRip, и т.д.] Судья Дредд 3D / Dredd 3D (Пит Трэвис) [2012 г., Фантастика, боевик, HDRip] Dub 90ytr90
20 | 1

1 | 1937

126

26.01.2013 19:34

Зарубежное кино [DVDRip, Low-Res HDRip, и т.д.] Судья Дредд / Dredd (Пит Трэвис) [2012 г., фантастика, боевик, триллер, криминал, HDRip] Dub garry
6 | 1

0 | 1450

12

26.10.2013 22:46

Зарубежное кино HQ Судья Дредд / Judge Dredd (Дэнни Кэннон / Danny Cannon) [1995 г., фантастика, боевик, триллер, криминал, BDRip] MVO (Rus,Ukr) + Original HQ Underverse HQ Underverse
4 | 0

0 | 1043

19

18.09.2014 10:59

Зарубежное кино [HDDVDRip / BDRip / WEB-DL / HDTV 1080/720р] Судья Дредд 3D / Dredd 3D (Пит Трэвис) [2012 г., фантастика, боевик, триллер, криминал, BDRip 720p] AVO + Original dmax90
10 | 1

2 | 1572

31

07.01.2013 16:19

Зарубежное кино [HDDVDRip / BDRip / WEB-DL / HDTV 1080/720р] Судья Дредд 3D / Dredd 3D (Пит Трэвис) [2012 г., Фантастика, боевик, BDRip 720p] Dub + Eng 90ytr90
0 | 0

0 | 566

9

25.01.2013 14:57

Зарубежное кино [HDDVDRip / BDRip / WEB-DL / HDTV 1080/720р] Судья Дредд 3D / Dredd 3D (Пит Трэвис) [2012 г., Фантастика, боевик, BDRip 1080p] Dub + Eng 90ytr90
0 | 0

0 | 696

25

25.01.2013 15:45

Архив Судья Дредд / Judge Dredd: Dredd vs. Death (2003 г., Action / Shooter) [L] (RUS) ZaserOn
0 | 0

1 | 901

0

05.11.2011 14:45

maddd Пол:Муж

28-Янв-2013 13:04

Посмотрел фильм, и не понимаю почему рейтинг такой высокий, наверное из-за любви до оригинального Дредда со Сталоне
Обычный боевик, просто мясо с кучей трупов, выстреленными патронами и наркотой :)
на 5,5 имхо

garry Пол:Муж

28-Янв-2013 14:54

maddd
как раз со Сталлоне фильм не очень...имхо. скорей всего любовь к самому персонажу)

maddd Пол:Муж

29-Янв-2013 12:52

gari
но там хоть сюжет какой-то есть: предательство, тюрма, побег, месть (я про фильм со Сталоне), а здесь что ?

garry Пол:Муж

29-Янв-2013 15:10

maddd
там вообще комедию сделали - тот же актер Роб Шнайдер. плюс Сталлоне все спорил с редиссером "надо сделать так, а здесь так...а фразу так сказать", что довел оного до того, что тот перестал сотрудничать со звездами вообще.
признаюсь честно - комикс не читал, но Дредд должен быть брутальным. ходить и мочить всех вокруг: минимум слов, максимум крови.

Яндекс.Метрика powered by Sphinx


В Н И М А Н И Е
Сайт не распространяет и не хранит электронные версии произведений, а лишь бесплатно и без коммерческой выгоды (не требуя взамен платы,
SMS и т.д.) предоставляет доступ к создаваемому пользователями каталогу ссылок на торрент-файлы, которые содержат только списки хеш-сумм.
Убедительная просьба с жалобами обращаться напрямую к пользователю, разместившему торрент файл.

Вверх