Loading...
Error

Робот и Фрэнк / Robot & Frank (Джейк Шрейер) [2012 г., Фантастика, Драма, Комедия, DVDRip-AVC] MVO

Статистика раздачи
Размер:  1,46 GB   |    Зарегистрирован:  3 года 10 месяцев   |    Скачан:  46 раз

Полного источника не было: 18 часов

Сидов:  0  |  0 KB/s  ]   Личеров:  0  |  0 KB/s  ]

* - сиды/пиры с внешних источников

   
 
Автор Сообщение

Чертёнок Пол:Муж

27-Янв-2013 21:34

Робот и Фрэнк / Robot & Frank


Год выпуска: 2012
Жанр: Фантастика, Драма, Комедия
Страна: США
Режиссер: Джейк Шрейер
В ролях: Фрэнк Ланджелла, Джеймс Марсден, Лив Тайлер, Сьюзен Сарандон, Питер Сарсгаард, Джереми Стронг, Дарио Бароссо
Сюжет фильма:
Фильм о трогательной дружбе старика и робота. История заключается в том, что пожилой мужчина, Фрэнк, в прошлом, кстати, вор-взломщик, живет в одиночестве. Его уже взрослые дети далеко, и чтобы хоть как-то помочь стареющему отцу, у которого начинает развиваться болезнь Альцгеймера, сын дарит Фрэнку робота-компаньона. Действие фильма происходит в не очень далеком будущем, роботы в домашнем хозяйстве — вполне нормальное явление. Поскольку Фрэнк считает себя человеком самостоятельным и не желает, чтобы за ним кто-то или что-то присматривало, он с опаской относится к подаренному роботу.

Качество видео: DVDRip-AVC

Продолжительность: 01:25:20
Формат: MKV
Видео: MPEG-4 AVC, 1023x424 , 2062 kbps
Аудио: русский, многоголосый закадровый [профессиональный], AC3 5.1, 384 kbps

Код:

Общее
Уникальный идентификатор : 252863938158719208776435487648405429780 (0xBE3BD2B2754C4397824516D0A3669E14)
Полное имя : Робот.и.Фрэнк.2012.P.x264.DVDRip.mkv
Формат : Matroska
Версия формата : Version 4 / Version 2
Размер файла : 1,46 Гбайт
Продолжительность : 1 ч. 25 м.
Общий поток : 2447 Кбит/сек
Название фильма : Робот.и.Фрэнк.2012.P.x264.DVDRip
Дата кодирования : UTC 2013-01-26 19:12:30
Программа кодирования : mkvmerge v6.0.0 ('Coming Up For Air') built on Jan 20 2013 09:52:00
Библиотека кодирования : libebml v1.3.0 + libmatroska v1.4.0

Видео
Идентификатор : 1
Формат : AVC
Формат/Информация : Advanced Video Codec
Профиль формата : High@L4.1
Параметр CABAC формата : Да
Параметр ReFrames формата : 11 кадров
Идентификатор кодека : V_MPEG4/ISO/AVC
Продолжительность : 1 ч. 25 м.
Битрейт : 2062 Кбит/сек
Ширина : 720 пикселей
Высота : 424 пикселя
Соотношение сторон : 2,40:1
Частота кадров : 25,000 кадров/сек
Цветовое пространство : YUV
Субдискретизация насыщенности : 4:2:0
Битовая глубина : 8 бит
Тип развёртки : Прогрессивная
Бит/(Пиксели*Кадры) : 0.270
Размер потока : 1,20 Гбайт (82%)
Заголовок : MysTeRy
Библиотека кодирования : x264 core 125 r2208 d9d2288
Настройки программы : cabac=1 / ref=11 / deblock=1:-1:-1 / analyse=0x3:0x133 / me=umh / subme=7 / psy=1 / psy_rd=1.00:0.10 / mixed_ref=1 / me_range=16 / chroma_me=1 / trellis=2 / 8x8dct=1 / cqm=0 / deadzone=21,11 / fast_pskip=0 / chroma_qp_offset=-3 / threads=12 / lookahead_threads=2 / sliced_threads=0 / nr=0 / decimate=0 / interlaced=0 / bluray_compat=0 / constrained_intra=0 / bframes=7 / b_pyramid=2 / b_adapt=2 / b_bias=0 / direct=3 / weightb=1 / open_gop=0 / weightp=2 / keyint=250 / keyint_min=25 / scenecut=40 / intra_refresh=0 / rc_lookahead=60 / rc=2pass / mbtree=0 / bitrate=2062 / ratetol=1.0 / qcomp=0.70 / qpmin=10 / qpmax=69 / qpstep=4 / cplxblur=20.0 / qblur=0.5 / vbv_maxrate=50000 / vbv_bufsize=61400 / nal_hrd=none / ip_ratio=1.40 / pb_ratio=1.30 / aq=1:0.80
Язык : English
Default : Да
Forced : Нет

Аудио
Идентификатор : 2
Формат : AC-3
Формат/Информация : Audio Coding 3
Расширение режима : CM (complete main)
Идентификатор кодека : A_AC3
Продолжительность : 1 ч. 25 м.
Вид битрейта : Постоянный
Битрейт : 384 Кбит/сек
Каналы : 6 каналов
Расположение каналов : Front: L C R, Side: L R, LFE
Частота : 48,0 КГц
Битовая глубина : 16 бит
Метод сжатия : С потерями
Размер потока : 234 Мбайт (16%)
Заголовок : P
Язык : Russian
Default : Да
Forced : Нет

Меню
00:00:00.000 : en:Chapter 1
00:06:09.208 : en:Chapter 2
00:15:32.042 : en:Chapter 3
00:24:21.583 : en:Chapter 4
00:32:29.917 : en:Chapter 5
00:40:23.750 : en:Chapter 6
00:52:29.917 : en:Chapter 7
00:59:16.125 : en:Chapter 8
01:08:09.919 : en:Chapter 9
01:15:23.352 : en:Chapter 10
Семпл: http://multi-up.com/822641










Этот торрент недоступен для скачивания без регистрации, однако доступен по публичной magnet-ссылке (источники с публичных трекеров). Перед использованием ссылки прочтите, пожалуйста Пользовательское соглашение, а также как можно дольше оставайтесь на раздаче! Для того, чтобы скачать сам торрент-файл (который видит больше источников), а также для того, чтобы поблагодарить релизера, вам необходимо зарегистрироваться. Если регистрироваться лень - вы можете также попробовать скачать релиз по нашим партнерским ссылкам ниже.

[underverse.su].t23703.torrent
Трекер: Зарегистрирован   [ 27.01.2013 21:34 ]  

Статус: проверено (by Чертёнок at 27.01.2013 21:34)
Поблагодарили: 3 человека
Тип торрента: публичный - доступные источники с открытых трекеров: 
Размер: 1,46 GB (занимает 1/3 DVDR, для записи нужно 1 болванка DVDR/RW)
 
 
Похожие темы
Форум Тема Автор Торрент Отв. Посл. сооб.
Зарубежное кино [DVDRip, Low-Res HDRip, и т.д.] Робот и Фрэнк / Robot & Frank (Джейк Шрейер / Jake Schreier) [2012 г., драма, комедия, фантастика, криминал, BDRip] MVO 90ytr90
2 | 0

1 | 1031

19

26.04.2013 13:33



Последний раз редактировалось: Чертёнок (28.01.2013 12:11), всего редактировалось 1 раз

8ad_R060d Пол:Муж

02-Фев-2013 16:24

Не могу пройти мимо!.. Качаю!

Zeratul1 Пол:Жен

02-Фев-2013 19:03

Лив постарела...

Яндекс.Метрика powered by Sphinx


В Н И М А Н И Е
Сайт не распространяет и не хранит электронные версии произведений, а лишь бесплатно и без коммерческой выгоды (не требуя взамен платы,
SMS и т.д.) предоставляет доступ к создаваемому пользователями каталогу ссылок на торрент-файлы, которые содержат только списки хеш-сумм.
Убедительная просьба с жалобами обращаться напрямую к пользователю, разместившему торрент файл.

Вверх