Loading...
Error

Уилл / Will (Эллен Перри) [2011, драма, семейный, спорт, DVDRip] MVO

Статистика раздачи
Размер:  1,45 GB   |    Зарегистрирован:  3 года 10 месяцев   |    Скачан:  4 раза

Полного источника не было: 3 года 10 месяцев

Сидов:  0  |  0 KB/s  ]   Личеров:  0  |  0 KB/s  ]

* - сиды/пиры с внешних источников

   
 
Автор Сообщение

Garnett Пол:Муж

23-Янв-2013 11:23

Уилл / Will

Страна: Великобритания
Жанр: драма, семейный, спорт
Год выпуска: 2011
Продолжительность: 01:37:48
Перевод: Профессиональный (многоголосый, закадровый) [лицензия]
Субтитры: нет
Режиссер: Эллен Перри / Ellen Perry
В ролях: Дамиан Льюис, Боб Хоскинс, Ребека Стэтон, Киран Уоллбэнкс, Perry Eggleton, Малкольм Сторри, Элис Крайдж, Брэндон Робинсон, Джейн Марч, Karen Crean, Кристиан Килинг, Нил Мэскелл
Описание: Одиннадцатилетний Уилл Брэннан - большой фанат футбольного клуба «Ливерпуль». Он живет в школе для мальчиков в Англии, посвящая любимой команде все свое время. Жизнь его переворачивается, когда неожиданно заявляется давно отсутствовавший отец, Гарет, который привез билеты на Финал Лиги Чемпионов-2005 в Стамбуле.
Однако прежде, чем эти двое отправятся в Стамбул, Гарет внезапно умирает, покидая, на этот раз, Уилла уже навсегда. Пытаясь приспособиться жить в мире, где он остался сиротой, Уилл убегает в Турцию. Так он надеется одновременно почтить память отца и быть рядом с его любимым «Ливерпулем».
В пути Уилл встречает Алека, бывшего звездного футболиста Югославии, оставившего игру после трагических событий гражданской войны в его стране. Несмотря на первоначальное нежелание сопровождать мальчика, Алек все же находит в себе силы поехать вместе с ним в Стамбул. Вместе герои постараются доказать самим себе, что в жизни никогда не поздно мечтать.
Сценарий: Зак Андерсон / Zack Anderson, Эллен Перри / Ellen Perry
Продюсер: Taha Altayli, Эллен Перри / Ellen Perry, Зак Андерсон / Zack Anderson, Марк Купер / Mark Cooper, Тимоти Дж. Николас / Timothy J. Nicholas
Оператор: Оливер Степлтон / Oliver Stapleton
Композитор: Найджел Кларк / Nigel Clarke, Майкл Ксани-Уиллис / Michael Csбnyi-Wills
Мировая премьера: 4 ноября 2011
Релиз на DVD: 22 января 2013, «Columbia/Sony»
Качество: DVDRip (Исходник DVD5 R5)
Контейнер: AVI
Видео: XviD, 720x304 (2.35:1), 1727 kbps, 25 fps, 0,316 bpp
Аудио: AC3 / 5.1 / 48 kHz / 384 kbps / 16 bit
General
Complete name : F:\Will.2011.P.DVDRip_1400.avi
Format : AVI
Format/Info : Audio Video Interleave
File size : 1.45 GiB
Duration : 1h 37mn
Overall bit rate : 2 121 Kbps
Writing application : VirtualDubMod 1.5.10.3 | www.virtualdub-fr.org || (build 2550/release)
Original source form/Name : Movie
Video
ID : 0
Format : MPEG-4 Visual
Format profile : Advanced Simple@L5
Format settings, BVOP : 1
Format settings, QPel : No
Format settings, GMC : No warppoints
Format settings, Matrix : Custom
Codec ID : XVID
Codec ID/Hint : XviD
Duration : 1h 37mn
Bit rate : 1 728 Kbps
Width : 720 pixels
Height : 304 pixels
Display aspect ratio : 2.35:1
Frame rate : 25.000 fps
Color space : YUV
Chroma subsampling : 4:2:0
Bit depth : 8 bits
Scan type : Progressive
Compression mode : Lossy
Bits/(Pixel*Frame) : 0.316
Stream size : 1.18 GiB (81%)
Writing library : XviD 1.2.1 (UTC 2008-12-04)
Audio
ID : 1
Format : AC-3
Format/Info : Audio Coding 3
Mode extension : CM (complete main)
Codec ID : 2000
Duration : 1h 37mn
Bit rate mode : Constant
Bit rate : 384 Kbps
Channel(s) : 6 channels
Channel positions : Front: L C R, Side: L R, LFE
Sampling rate : 48.0 KHz
Bit depth : 16 bits
Compression mode : Lossy
Stream size : 269 MiB (18%)
Alignment : Split accross interleaves
Interleave, duration : 40 ms (1.00 video frame)
Interleave, preload duration : 500 ms
picpicpic

Этот торрент недоступен для скачивания без регистрации, однако доступен по публичной magnet-ссылке (источники с публичных трекеров). Перед использованием ссылки прочтите, пожалуйста Пользовательское соглашение, а также как можно дольше оставайтесь на раздаче! Для того, чтобы скачать сам торрент-файл (который видит больше источников), а также для того, чтобы поблагодарить релизера, вам необходимо зарегистрироваться. Если регистрироваться лень - вы можете также попробовать скачать релиз по нашим партнерским ссылкам ниже.

[underverse.su].t23596.torrent
Трекер: Зарегистрирован   [ 23.01.2013 11:23 ]  

Статус: проверено (by Чертёнок at 23.01.2013 12:28)
Поблагодарили: пока никто не поблагодарил...
Тип торрента: публичный - доступные источники с открытых трекеров: 
Размер: 1,45 GB (занимает 1/3 DVDR, для записи нужно 1 болванка DVDR/RW)
 
 

Яндекс.Метрика powered by Sphinx


В Н И М А Н И Е
Сайт не распространяет и не хранит электронные версии произведений, а лишь бесплатно и без коммерческой выгоды (не требуя взамен платы,
SMS и т.д.) предоставляет доступ к создаваемому пользователями каталогу ссылок на торрент-файлы, которые содержат только списки хеш-сумм.
Убедительная просьба с жалобами обращаться напрямую к пользователю, разместившему торрент файл.

Вверх