Loading...
Error

Амфибия / Amphibious (Брайан Юзна) [2010, ужасы, DVDRip] MVO (НТВ+) + Original Eng

Статистика раздачи
Размер:  1,37 GB   |    Зарегистрирован:  3 года 10 месяцев   |    Скачан:  21 раз

Полного источника не было: 3 месяца 18 дней

Сидов:  0  |  0 KB/s  ]   Личеров:  0  |  0 KB/s  ]

* - сиды/пиры с внешних источников

   
 
Автор Сообщение

Garnett Пол:Муж

23-Янв-2013 11:13

Амфибия / Amphibious
Страна: Нидерланды, Индонезия
Жанр: ужасы
Год выпуска: 2010
Продолжительность: 01:21:41
Перевод:Профессиональный (многоголосый закадровый) НТВ+
Cубтитры: нет
Оригинальная аудиодорожка:английский
Режиссер: Брайан Юзна / Brian Yuzna
В ролях:Майкл Паре, Мохаммад Адитья, Бамбанг Б.С., Стивен Барай, Френсис Боске, Джинна Фассерт, Майкл С. Джехиан, Френсис Маджи, Тимо Оттеванrер
Описание:Морской биолог Скайлар Шейн нанимает лодку капитана Джека Боумана, чтобы найти образцы доисторических форм возле северного побережья Суматры. Во время экспедиции, они сталкиваются с бандой контрабандистов, скрывающихся на рыболовецкой платформе посреди моря. Но контрабандисты не самое страшное, с чем придется столкнуться Скайлар — приближается жуткий шторм, а в темных глубинах вод проснулось древнее и могучее существо…
Сэмпл: http://multi-up.com/819460
Качество видео: DVDRip
Формат видео: AVI
Видео: Xvid 720x384 25.00fps 1 997 Kbps
Аудио:MPEG Audio Layer 3 48000Hz stereo 192kbps rus
Аудио 2:Dolby AC3 48000Hz stereo 192kbps eng
Format : AVI
Format/Info : Audio Video Interleave
File size : 1.37 GiB
Duration : 1h 21mn
Overall bit rate : 2 396 Kbps
Writing application : VirtualDubMod 1.5.10.2 (build 2540/release)
Writing library : VirtualDubMod build 2540/release
Video
ID : 0
Format : MPEG-4 Visual
Format profile : Advanced Simple@L5
Format settings, BVOP : Yes
Format settings, QPel : No
Format settings, GMC : No warppoints
Format settings, Matrix : Default (H.263)
Muxing mode : Packed bitstream
Codec ID : XVID
Codec ID/Hint : XviD
Duration : 1h 21mn
Bit rate : 1 997 Kbps
Width : 720 pixels
Height : 384 pixels
Display aspect ratio : 1.875
Frame rate : 25.000 fps
Resolution : 8 bits
Colorimetry : 4:2:0
Scan type : Progressive
Bits/(Pixel*Frame) : 0.289
Stream size : 1.14 GiB (83%)
Writing library : XviD 1.2.1 (UTC 2008-12-04)
Audio #1
ID : 1
Format : MPEG Audio
Format version : Version 1
Format profile : Layer 3
Format_Settings_Mode : Joint stereo
Codec ID : 55
Codec ID/Hint : MP3
Duration : 1h 21mn
Bit rate mode : Constant
Bit rate : 192 Kbps
Channel(s) : 2 channels
Sampling rate : 48.0 KHz
Stream size : 112 MiB (8%)
Alignment : Aligned on interleaves
Interleave, duration : 40 ms (1.00 video frame)
Interleave, preload duration : 504 ms
Audio #2
ID : 2
Format : AC-3
Format/Info : Audio Coding 3
Codec ID : 2000
Duration : 1h 21mn
Bit rate mode : Constant
Bit rate : 192 Kbps
Channel(s) : 2 channels
Channel positions : L R
Sampling rate : 48.0 KHz
Stream size : 112 MiB (8%)
Alignment : Split accross interleaves
Interleave, duration : 40 ms (1.00 video frame)
Interleave, preload duration : 500 ms
picpicpic

Этот торрент недоступен для скачивания без регистрации, однако доступен по публичной magnet-ссылке (источники с публичных трекеров). Перед использованием ссылки прочтите, пожалуйста Пользовательское соглашение, а также как можно дольше оставайтесь на раздаче! Для того, чтобы скачать сам торрент-файл (который видит больше источников), а также для того, чтобы поблагодарить релизера, вам необходимо зарегистрироваться. Если регистрироваться лень - вы можете также попробовать скачать релиз по нашим партнерским ссылкам ниже.

[underverse.su].t23593.torrent
Трекер: Зарегистрирован   [ 23.01.2013 11:13 ]  

Статус: проверено (by Чертёнок at 23.01.2013 12:34)
Поблагодарили: пока никто не поблагодарил...
Тип торрента: публичный - доступные источники с открытых трекеров: 
Размер: 1,37 GB (занимает 0,31 DVDR, для записи нужно 1 болванка DVDR/RW)
 
 

Яндекс.Метрика powered by Sphinx


В Н И М А Н И Е
Сайт не распространяет и не хранит электронные версии произведений, а лишь бесплатно и без коммерческой выгоды (не требуя взамен платы,
SMS и т.д.) предоставляет доступ к создаваемому пользователями каталогу ссылок на торрент-файлы, которые содержат только списки хеш-сумм.
Убедительная просьба с жалобами обращаться напрямую к пользователю, разместившему торрент файл.

Вверх