Loading...
Error

Наблюдая эпоху заходящего солнца / Okami yo rakujitsu o kire (Кэндзи Мисуми) [1974 г., боевик, драма, DVDRip] VO

Статистика раздачи
Размер:  1,44 GB   |    Зарегистрирован:  3 года 10 месяцев   |    Скачан:  6 раз

Полного источника не было: 3 года 9 месяцев

Сидов:  0  |  0 KB/s  ]   Личеров:  0  |  0 KB/s  ]

* - сиды/пиры с внешних источников

   
 
Автор Сообщение

Паукан Пол:Муж

23-Янв-2013 08:49

Наблюдая эпоху заходящего солнца / Okami yo rakujitsu o kire


Год выпуска: 1974
Жанр: боевик, драма
Страна: Япония
Режиссер: Кэндзи Мисуми
В ролях: Хидеки Такахаси, Кен Огата, Масаоми Кондо, Терухико Сайго, Аяко Хонами, Кейко Мацузака, Риуносуке Минегиши, Асао Сано, Кивако Тайти, Такахиро Тамура
Сюжет фильма:
Действие фильма охватывает с 1864 по 1877 г. г. и начинается со знаменитого предотвращения лидерами народного ополчения «Синсэнгуми» пожара в Киото. На протяжении этих лет и событий, показанных в фильме, Судзи — воин, отлично владеющий искусством боя на мечах — становится свидетелем крушения мира самураев, когда меч и этический код этого сословия теряют свой традиционный смысл. Его друзья, принадлежащие к разным кланам, вынуждены воевать в гражданской войне на разных сторонах, и ему самому придется сделать непростой выбор между верностью своему мечу и идеалами новой жизни.

  • Мировая премьера: 21 сентября 1974

/
Качество видео: DVDRip

Продолжительность: 02:32:03
Формат: AVI
Видео: XviD, 720x288, 1157 kbps
Аудио: русский, одноголосый закадровый [любительский], MP3 2.0, 192 kbps

Код:

Формат : AVI
Формат/Информация : Audio Video Interleave
Размер файла : 1,44 Гбайт
Продолжительность : 2 ч. 32 м.
Общий поток : 1359 Кбит/сек
Программа кодирования : VirtualDubMod 1.5.10.2 (build 2540/release)
Библиотека кодирования : VirtualDubMod build 2540/release

Видео
Идентификатор : 0
Формат : MPEG-4 Visual
Профиль формата : Advanced Simple@L5
Параметр BVOP формата : 1
Параметр QPel формата : Нет
Параметр GMC формата : Без точки перехода
Параметр матрицы формата : Default (H.263)
Идентификатор кодека : XVID
Идентификатор кодека/Подсказка : XviD
Продолжительность : 2 ч. 32 м.
Битрейт : 1157 Кбит/сек
Ширина : 720 пикселей
Высота : 288 пикселей
Соотношение сторон : 2,500
Частота кадров : 25,000 кадров/сек
Цветовое пространство : YUV
Субдискретизация насыщенности : 4:2:0
Битовая глубина : 8 бит
Тип развёртки : Прогрессивная
Метод сжатия : С потерями
Бит/(Пиксели*Кадры) : 0.223
Размер потока : 1,23 Гбайт (85%)
Библиотека кодирования : XviD 1.2.0.dev47 (UTC 2006-11-01)

Аудио
Идентификатор : 1
Формат : MPEG Audio
Версия формата : Version 1
Профиль формата : Layer 3
Режим : Joint stereo
Идентификатор кодека : 55
Идентификатор кодека/Подсказка : MP3
Продолжительность : 2 ч. 32 м.
Вид битрейта : Постоянный
Битрейт : 192 Кбит/сек
Каналы : 2 канала
Частота : 48,0 КГц
Метод сжатия : С потерями
Размер потока : 209 Мбайт (14%)
Выравнивание : Соединение по промежуткам
Продолжительность промежутка : 40 мс. (1,00 видеокадр)
Время предзагрузки промежутка : 504 мс.
picpicpic
Для увеличения картинки щелкните мышкой по превью

Этот торрент недоступен для скачивания без регистрации, однако доступен по публичной magnet-ссылке (источники с публичных трекеров). Перед использованием ссылки прочтите, пожалуйста Пользовательское соглашение, а также как можно дольше оставайтесь на раздаче! Для того, чтобы скачать сам торрент-файл (который видит больше источников), а также для того, чтобы поблагодарить релизера, вам необходимо зарегистрироваться. Если регистрироваться лень - вы можете также попробовать скачать релиз по нашим партнерским ссылкам ниже.

[underverse.su].t23588.torrent
Трекер: Зарегистрирован   [ 23.01.2013 08:49 ]  

Статус: проверено (by Garnett at 23.01.2013 11:28)
Поблагодарили: пока никто не поблагодарил...
Тип торрента: публичный - доступные источники с открытых трекеров: 
Размер: 1,44 GB (занимает 0,33 DVDR, для записи нужно 1 болванка DVDR/RW)
 
 

Яндекс.Метрика powered by Sphinx


В Н И М А Н И Е
Сайт не распространяет и не хранит электронные версии произведений, а лишь бесплатно и без коммерческой выгоды (не требуя взамен платы,
SMS и т.д.) предоставляет доступ к создаваемому пользователями каталогу ссылок на торрент-файлы, которые содержат только списки хеш-сумм.
Убедительная просьба с жалобами обращаться напрямую к пользователю, разместившему торрент файл.

Вверх