Loading...
Error

Гражданка начальница 2. Продолжение / Серии:1-14(14)(Сергей Виноградов) [2012 г., криминальная драма, DVB]

Статистика раздачи
Размер:  23,87 GB   |    Зарегистрирован:  3 года 9 месяцев   |    Скачан:  1 раз

Полного источника не было: 8 месяцев

Сидов:  0  |  0 KB/s  ]   Личеров:  0  |  0 KB/s  ]

* - сиды/пиры с внешних источников

   
 
Автор Сообщение

nemos Пол:Муж

21-Янв-2013 14:54



Год выпуска: 2012
Жанр: криминальная драма
Страна: Россия
Режиссер: Сергей Виноградов
В ролях: Ирина Низина, Вячеслав Разбегаев, Александр Сирин, Людмила Нильская, Наталья Палагушкина, Алена Кузнецова, Дарья Михайлова, Тимофей Трибунцев, Олег Пичурин, Мария Мясникова, Алексей Панов, Марианна Шергина, Светлана Виноградова-Богатт, Елена Смышляева, Римма Морозова, Роман Горбачев, Светлана Поротикова, Маргарита Иванова, Жанна Виноградова, Мария Звонарёва, Юлия Александрова, Ярослав Бойко, Татьяна Кречетова, Дарья Чаруша, Марина Казанкова, Олеся Судзиловская, Виктория Тарасова, Максим Дрозд, Светлана Чуйкина, Ольга Науменко, Елена Дубровская, Екатерина Носик, Андрей Негривода, Дарья Носик, Денис Жариков, Елена Мироненко, Алиса Тарасенко, Дарья Иванова
Сюжет фильма:
Продолжение истории преподавателя высшей школы милиции Ирины Семеновой.
Семёнова становится инициатором условно-досрочного освобождения Екатерины Пчёлкиной. Ирина идет на повышение. В день выхода Пчёлкиной в колонию прибывает новая партия заключенных. Среди них оказывается Рита — дочь Екатерины. Ирина пытается наладить отношения матери и дочери, но не всем по душе такое рвение…

Доп.информация: это продолжение двухсерийного "сериала" Гражданка начальница (в данных раздачах две серии объединены в один фильм)
Внимание! Раздача ведётся путём добавления новых серий; при каждом добавлении создётся новый торрент. Чтобы начать докачку новой серии, пользователям необходимо сделать следующее:
(1) остановить скачивание,
(2) удалить старый торрент у себя из клиента (старые серии удалять не надо),
(3) скачать новый торрент и запустить его у себя в клиенте вместо старого, при этом указать клиенту путь в старую папку куда и должно происходить скачивание новых серий.
Ваш клиент при этом должен произвести хеширование (проверку) старой папки (если не производит сам - помогите ему сделать это), и будет докачивать только те серии которых у вас ещё нет. Старые серии при этом не удаляются, а продолжают раздаваться!
Eсли вы уже удалили старые серии, то предотвратить повторную закачку старых серий можно, отжав галочку в соответствующих местах при запуске нового торрента.

Качество видео: DVB

Продолжительность: 00:45:41 серия
Формат: MPEG-PS
Видео: MPEG 2, 768x576, 5140 kbps
Аудио: русский, MP2, 192kbps

Код:

D:\СКАЧКИ\С underverse\Гражданка начальница. Продолжение\Гражданка начальница. Продолжение.14.mpg
   General
      Complete name : D:\СКАЧКИ\С underverse\Гражданка начальница. Продолжение\Гражданка начальница. Продолжение.14.mpg
      Format : MPEG-PS
      File size : 1.74 GiB
      Duration : 45mn 41s
      Overall bit rate mode : Variable
      Overall bit rate : 5 441 Kbps
      Writing library : (c) 1998-2012 Womble Multimedia, Inc. / MPEG Video Wizard DVD 5.0.1.100 (03/2011) / Sep  7 2012
   Video #224
      ID : 224 (0xE0)
      Format : MPEG Video
      Format version : Version 2
      Format profile : Main@Main
      Format settings, BVOP : Yes
      Format settings, Matrix : Custom
      Format settings, GOP : M=3, N=24
      Duration : 45mn 41s
      Bit rate mode : Variable
      Bit rate : 5 140 Kbps
      Maximum bit rate : 15.0 Mbps
      Width : 768 pixels
      Height : 576 pixels
      Display aspect ratio : 4:3
      Frame rate : 25.000 fps
      Standard : PAL
      Color space : YUV
      Chroma subsampling : 4:2:0
      Bit depth : 8 bits
      Scan type : Interlaced
      Scan order : Top Field First
      Compression mode : Lossy
      Bits/(Pixel*Frame) : 0.496
      Stream size : 1.64 GiB (94%)
      Writing library : (c) 1998-2012 Womble Multimedia, Inc. / MPEG Video Wizard DVD 5.0.1.100 (03/2011) / Sep  7 2012
   Audio #192
      ID : 192 (0xC0)
      Format : MPEG Audio
      Format version : Version 1
      Format profile : Layer 2
      Duration : 45mn 41s
      Bit rate mode : Constant
      Bit rate : 192 Kbps
      Channel(s) : 2 channels
      Sampling rate : 48.0 KHz
      Compression mode : Lossy
      Delay relative to video : -40ms
      Stream size : 62.7 MiB (4%)
Семпл: http://multi-up.com/820016

picpicpicpicpicpicpicpic
Для увеличения картинки щелкните мышкой по превью
Сериал который был выложен и зарегистрирован более двух месяцев назад буду раздавать с 23.00ч до 06.00ч утра ( вина в этом немоя, а пользователей которые неподдерживают раздачу)

Этот торрент недоступен для скачивания без регистрации, однако доступен по публичной magnet-ссылке (источники с публичных трекеров). Перед использованием ссылки прочтите, пожалуйста Пользовательское соглашение, а также как можно дольше оставайтесь на раздаче! Для того, чтобы скачать сам торрент-файл (который видит больше источников), а также для того, чтобы поблагодарить релизера, вам необходимо зарегистрироваться. Если регистрироваться лень - вы можете также попробовать скачать релиз по нашим партнерским ссылкам ниже.

[underverse.su].t24303.torrent
Трекер: Зарегистрирован   [ 18.02.2013 02:21 ]  

Статус: проверено (by Паукан at 18.02.2013 12:09)
Поблагодарили: пока никто не поблагодарил...
Тип торрента: публичный - доступные источники с открытых трекеров: 
Размер: 23,87 GB (занимает 5,45 DVDR, для записи нужно 6 болванок DVDR/RW)
 
 
Похожие темы
Форум Тема Автор Торрент Отв. Посл. сооб.
Наше кино [DVDRip, Low-Res HDRip, и т.д.] Гражданка начальница (Михаил Вассербаум) [2010 г., криминал, SATRip] nemos
0 | 0

0 | 1062

6

21.01.2013 13:04

xUSSR сериалы Гражданка начальница 2. Продолжение / серии: 1-14 (14) (Сергей Виноградов) [2012 г., криминальная драма, SATRip] 90ytr90
2 | 2

0 | 800

5

31.03.2013 06:52



Последний раз редактировалось: nemos (06.11.2014 12:30), всего редактировалось 8 раз(а)

nemos Пол:Муж

12-Фев-2013 02:09

Обновлен(10)

Яндекс.Метрика powered by Sphinx


В Н И М А Н И Е
Сайт не распространяет и не хранит электронные версии произведений, а лишь бесплатно и без коммерческой выгоды (не требуя взамен платы,
SMS и т.д.) предоставляет доступ к создаваемому пользователями каталогу ссылок на торрент-файлы, которые содержат только списки хеш-сумм.
Убедительная просьба с жалобами обращаться напрямую к пользователю, разместившему торрент файл.

Вверх