Loading...
Error

Гражданка начальница (Михаил Вассербаум) [2010 г., криминал, SATRip]

Статистика раздачи
Размер:  1,35 GB   |    Зарегистрирован:  3 года 10 месяцев   |    Скачан:  6 раз

Полного источника не было: 1 год 11 месяцев

Сидов:  0  |  0 KB/s  ]   Личеров:  0  |  0 KB/s  ]

* - сиды/пиры с внешних источников

   
 
Автор Сообщение

nemos Пол:Муж

21-Янв-2013 13:04



Год выпуска: 2010
Жанр: драма, криминальный
Страна: Россия
Режиссер: Михаил Вассербаум
В ролях: Ирина Низина, Ярослав Бойко, Вячеслав Разбегаев, Дарья Михайлова, Мария Звонарева, Александр Сирин, Тимофей Трибунцев и др.
Сюжет фильма:
История создания этого фильма уникальна. На НТВ обратилась Фаина Самойлова, подполковник внутренней службы в отставке, с предложением экранизировать свою книгу — правдивую историю о суровых буднях за колючей проволокой. Она долго работала заместителем начальника женской колонии-поселения, и почти тридцать лет серьезного жизненного опыта вылились в художественное произведение, из которого впоследствии родился сценарий. Характеры и судьбы многих героев фильма, в том числе и образ главной героини, взяты из книги, а, следовательно, — из самой жизни. Преподаватель высшей школы милиции Ирина узнала, что ее возлюбленный — бизнесмен Игорь — арестован за мошенничество. Вскоре ему вынесли приговор — восемь лет заключения, и отважная женщина, бросив хорошую работу в Москве, поехала вслед за ним в маленький городок. Ему предстояло отбывать там наказание, а ей… стать офицером-воспитателем в местной женской колонии. Привыкание к тюремным будням проходило тяжело — мир заключенных очень жесток. Каждый день новой жизни превратился для Ирины в настоящую проверку на прочность…


Качество видео: SatRip

Продолжительность: 01:34:00
Формат: AVI
Видео: DivX, 704 x 384, 1901 kbps
Аудио: русский, MP3 2.0, 128kbps

Код:

D:\СКАЧКИ\С underverse\Grazhdanka_nachal'nica_NNM-Club.ru].avi
   General
      Complete name : D:\СКАЧКИ\С underverse\Grazhdanka_nachal'nica_NNM-Club.ru].avi
      Format : AVI
      Format/Info : Audio Video Interleave
      File size : 1.35 GiB
      Duration : 1h 34mn
      Overall bit rate : 2 038 Kbps
      Writing application : VirtualDubModRus 1.5.10.1 (build 2439/release)
      Writing library : VirtualDubMod build 2439/release
   Video #0
      ID : 0
      Format : MPEG-4 Visual
      Format settings, BVOP : 3
      Format settings, QPel : No
      Format settings, GMC : No warppoints
      Format settings, Matrix : Default (H.263)
      Muxing mode : Packed bitstream
      Codec ID : DX50
      Codec ID/Hint : DivX 5
      Duration : 1h 34mn
      Bit rate : 1 901 Kbps
      Width : 704 pixels
      Height : 384 pixels
      Display aspect ratio : 1.85:1
      Frame rate : 25.000 fps
      Color space : YUV
      Chroma subsampling : 4:2:0
      Bit depth : 8 bits
      Scan type : Progressive
      Compression mode : Lossy
      Bits/(Pixel*Frame) : 0.281
      Stream size : 1.26 GiB (93%)
      Writing library : DivX 6.8.5 (UTC 2009-08-20)
   Audio #1
      ID : 1
      Format : MPEG Audio
      Format version : Version 1
      Format profile : Layer 3
      Codec ID : 55
      Codec ID/Hint : MP3
      Duration : 1h 34mn
      Bit rate mode : Constant
      Bit rate : 128 Kbps
      Channel(s) : 1 channel
      Sampling rate : 48.0 KHz
      Compression mode : Lossy
      Stream size : 86.8 MiB (6%)
      Alignment : Split accross interleaves
      Interleave, duration : 40 ms (1.00 video frame)
      Interleave, preload duration : 500 ms
Семпл: http://multi-up.com/819963

picpicpicpicpicpicpicpicpicpicpicpicpicpicpicpicpic
Для увеличения картинки щелкните мышкой по превью

Этот торрент недоступен для скачивания без регистрации, однако доступен по публичной magnet-ссылке (источники с публичных трекеров). Перед использованием ссылки прочтите, пожалуйста Пользовательское соглашение, а также как можно дольше оставайтесь на раздаче! Для того, чтобы скачать сам торрент-файл (который видит больше источников), а также для того, чтобы поблагодарить релизера, вам необходимо зарегистрироваться. Если регистрироваться лень - вы можете также попробовать скачать релиз по нашим партнерским ссылкам ниже.

[underverse.su].t23544.torrent
Трекер: Зарегистрирован   [ 21.01.2013 13:04 ]  

Статус: проверено (by Чертёнок at 21.01.2013 13:15)
Поблагодарили: пока никто не поблагодарил...
Тип торрента: публичный - доступные источники с открытых трекеров: 
Размер: 1,35 GB (занимает 0,31 DVDR, для записи нужно 1 болванка DVDR/RW)
 
 
Похожие темы
Форум Тема Автор Торрент Отв. Посл. сооб.
xUSSR сериалы Гражданка начальница 2. Продолжение / Серии:1-14(14)(Сергей Виноградов) [2012 г., криминальная драма, DVB] nemos
0 | 0

1 | 2650

1

12.02.2013 02:09

xUSSR сериалы Гражданка начальница 2. Продолжение / серии: 1-14 (14) (Сергей Виноградов) [2012 г., криминальная драма, SATRip] 90ytr90
2 | 2

0 | 800

5

31.03.2013 06:52


Яндекс.Метрика powered by Sphinx


В Н И М А Н И Е
Сайт не распространяет и не хранит электронные версии произведений, а лишь бесплатно и без коммерческой выгоды (не требуя взамен платы,
SMS и т.д.) предоставляет доступ к создаваемому пользователями каталогу ссылок на торрент-файлы, которые содержат только списки хеш-сумм.
Убедительная просьба с жалобами обращаться напрямую к пользователю, разместившему торрент файл.

Вверх