Loading...
Error

Джолин / Jolene (Дэн Айрлэнд) [2008, Драма, DVDRip] DVO

Статистика раздачи
Размер:  1,51 GB   |    Зарегистрирован:  3 года 10 месяцев   |    Скачан:  4 раза

Полного источника не было: 8 месяцев

Сидов:  0  |  0 KB/s  ]   Личеров:  0  |  0 KB/s  ]

* - сиды/пиры с внешних источников

   
 
Автор Сообщение

Garnett Пол:Муж

18-Янв-2013 18:52

Джолин / Jolene
Страна: США
Жанр: Драма
Год выпуска: 2008
Продолжительность: 02:00:53
Перевод: Любительский (двухголосый закадровый)
Cубтитры: нет
Оригинальная аудиодорожка: нет
Режиссер: Дэн Айрлэнд / Dan Ireland
В ролях: Джессика Честейн, Майкл Вартан, Дермот Малруни, Чазз Пальминтери, Руперт Френд, Дениз Ричардс, Тереза Расселл, Фрэнсис Фишер
Описание: Сирота-подросток проводит десять лет, путешествуя по стране, познавая жизнь, любовь и разлуку. Основано на новелле Эдгара Лоуренса Доктороу, "Джолин: Жизнь"
Доп. информация: Перевод:Langolyer
Озвучка:Rg Victory FIlms
Сэмпл: http://multi-up.com/818081
Качество видео: DVDRip
Формат видео: AVI
Видео: 720x304 (2.37:1),25 fps,XviD build 50,1590 kbps avg,0.29 bit/pixel
Аудио: 44.100 kHz,MPEG Layer 3,2 ch,192.00 kbps avg
Общее
Полное имя : C:\Documents and Settings\Jolene.2008.XviD.DVDRip-RG Victory Films.avi
Формат : AVI
Формат/Информация : Audio Video Interleave
Размер файла : 1,51 Гбайт
Продолжительность : 2 ч. 0 м.
Общий поток : 1793 Кбит/сек
Название фильма : Jolene
Режиссёр : Langolyer
Жанр : Drama
Программа кодирования : VirtualDubMod 1.5.10.2 (build 2540/release)
Формат оригинала/Имя : Movie
Примечание : Rg Victory Films
Видео
Идентификатор : 0
Формат : xvid
Идентификатор кодека : xvid
Продолжительность : 2 ч. 0 м.
Битрейт : 1591 Кбит/сек
Ширина : 720 пикселей
Высота : 304 пикселя
Соотношение сторон : 2,35:1
Частота кадров : 25,000 кадров/сек
Бит/(Пиксели*Кадры) : 0.291
Размер потока : 1,34 Гбайт (89%)
Аудио
Идентификатор : 1
Формат : MPEG Audio
Версия формата : Version 1
Профиль формата : Layer 3
Режим : Joint stereo
Идентификатор кодека : 55
Идентификатор кодека/Подсказка : MP3
Продолжительность : 2 ч. 0 м.
Вид битрейта : Постоянный
Битрейт : 192 Кбит/сек
Каналы : 2 канала
Частота : 44,1 КГц
Метод сжатия : С потерями
Размер потока : 166 Мбайт (11%)
Выравнивание : Разделение по промежуткам
Продолжительность промежутка : 40 мс. (1,00 видеокадр)
Время предзагрузки промежутка : 500 мс.
picpicpic

Этот торрент недоступен для скачивания без регистрации, однако доступен по публичной magnet-ссылке (источники с публичных трекеров). Перед использованием ссылки прочтите, пожалуйста Пользовательское соглашение, а также как можно дольше оставайтесь на раздаче! Для того, чтобы скачать сам торрент-файл (который видит больше источников), а также для того, чтобы поблагодарить релизера, вам необходимо зарегистрироваться. Если регистрироваться лень - вы можете также попробовать скачать релиз по нашим партнерским ссылкам ниже.

[underverse.su].t23447.torrent
Трекер: Зарегистрирован   [ 18.01.2013 18:52 ]  

Статус: проверено (by garry at 18.01.2013 19:00)
Поблагодарили: пока никто не поблагодарил...
Тип торрента: публичный - доступные источники с открытых трекеров: 
Размер: 1,51 GB (занимает 0,35 DVDR, для записи нужно 1 болванка DVDR/RW)
 
 

Яндекс.Метрика powered by Sphinx


В Н И М А Н И Е
Сайт не распространяет и не хранит электронные версии произведений, а лишь бесплатно и без коммерческой выгоды (не требуя взамен платы,
SMS и т.д.) предоставляет доступ к создаваемому пользователями каталогу ссылок на торрент-файлы, которые содержат только списки хеш-сумм.
Убедительная просьба с жалобами обращаться напрямую к пользователю, разместившему торрент файл.

Вверх