Loading...
Error

1812: Уланская баллада (Олег Фесенко) [2012 г., приключения, BDRip] HQ Underverse

Статистика раздачи
Размер:  1,45 GB   |    Зарегистрирован:  3 года 10 месяцев   |    Скачан:  48 раз

Полного источника не было: 6 часов

Сидов:  0  |  0 KB/s  ]   Личеров:  0  |  0 KB/s  ]

* - сиды/пиры с внешних источников

   
 
Автор Сообщение

HQ Underverse 

18-Янв-2013 13:10

1812: Уланская баллада


Год выпуска: 2012
Жанр: приключения
Страна: Россия
Режиссер: Олег Фесенко
В ролях: Сергей Безруков, Антон Соколов, Анна Чиповская, Анатолий Белый, Станислав Дужников, Валерий Николаев, Алексей Макаров, Борис Клюев, Эрик Фратичелли, Гедиминас Адомайтис
Сюжет фильма:
1812 год. Накануне решающей битвы при Бородино тайный агент Наполеона похищает план сражения. Об этом становится известно Кутузову, и он посылает на перехват своих лучших улан. Путь их лежит в Польшу, где разворачивается бурный роман Наполеона с графиней Валевской…

  • Мировая премьера: 1 ноября 2012
  • Российская премьера: 1 ноября 2012, «Централ Партнершип»


Продолжительность: 01:38:44
Формат: avi
Видео: XviD, 704x384, 1707 kbps
Аудио: русский, оригинал, AC3 5.1, 384 kbps

Код:

General
Complete name                    : E:\1812.Ulanskaya.Ballada.2012.BDRip.XviD.AC3.Rus.O.HQ.Underverse.avi
Format                           : AVI
Format/Info                      : Audio Video Interleave
File size                        : 1.45 GiB
Duration                         : 1h 38mn
Overall bit rate                 : 2 101 Kbps
Writing application              : VirtualDubMod 1.5.10.2 (build 2540/release)
Writing library                  : VirtualDubMod build 2540/release

Video
ID                               : 0
Format                           : MPEG-4 Visual
Format profile                   : Streaming Video@L1
Format settings, BVOP            : Yes
Format settings, QPel            : No
Format settings, GMC             : No warppoints
Format settings, Matrix          : Custom
Muxing mode                      : Packed bitstream
Codec ID                         : XVID
Codec ID/Hint                    : XviD
Duration                         : 1h 38mn
Bit rate                         : 1 707 Kbps
Width                            : 704 pixels
Height                           : 384 pixels
Display aspect ratio             : 16/9
Frame rate                       : 24.000 fps
Resolution                       : 24 bits
Colorimetry                      : 4:2:0
Scan type                        : Progressive
Bits/(Pixel*Frame)               : 0.263
Stream size                      : 1.18 GiB (81%)
Writing library                  : XviD 64

Audio
ID                               : 1
Format                           : AC-3
Format/Info                      : Audio Coding 3
Codec ID                         : 2000
Duration                         : 1h 38mn
Bit rate mode                    : Constant
Bit rate                         : 384 Kbps
Channel(s)                       : 6 channels
Channel positions                : Front: L C R, Surround: L R, LFE
Sampling rate                    : 48.0 KHz
Stream size                      : 271 MiB (18%)
Alignment                        : Split accross interleaves
Interleave, duration             : 42 ms (1.00 video frame)
Interleave, preload duration     : 500 ms

picpicpic
Для увеличения картинки щелкните мышкой по превью

Этот торрент недоступен для скачивания без регистрации, однако доступен по публичной magnet-ссылке (источники с публичных трекеров). Перед использованием ссылки прочтите, пожалуйста Пользовательское соглашение, а также как можно дольше оставайтесь на раздаче! Для того, чтобы скачать сам торрент-файл (который видит больше источников), а также для того, чтобы поблагодарить релизера, вам необходимо зарегистрироваться. Если регистрироваться лень - вы можете также попробовать скачать релиз по нашим партнерским ссылкам ниже.

[underverse.su].t23417.torrent
Трекер: Зарегистрирован   [ 18.01.2013 13:11 ]  

Статус: проверено (by garry at 18.01.2013 13:29)
Поблагодарили: 2 человека
Тип торрента: публичный - доступные источники с открытых трекеров: 
Размер: 1,45 GB (занимает 1/3 DVDR, для записи нужно 1 болванка DVDR/RW)
 
 
Похожие темы
Форум Тема Автор Торрент Отв. Посл. сооб.
Наше кино [DVDRip, Low-Res HDRip, и т.д.] 1812: Уланская баллада (Олег Фесенко) [2012 г., приключения, DVDRip] 90ytr90
9 | 0

1 | 1593

146

15.12.2012 06:18

Наше кино [DVDRip, Low-Res HDRip, и т.д.] 1812: Уланская баллада (Олег Фесенко) [2012 г., приключения, DVDRip] 90ytr90
2 | 0

0 | 466

18

15.12.2012 08:53

Наше кино [DVDRip, Low-Res HDRip, и т.д.] 1812: Уланская баллада (Олег Фесенко) [2012 г., приключения, BDRip] 90ytr90
1 | 0

0 | 483

14

14.01.2013 19:50

Наше кино [DVDRip, Low-Res HDRip, и т.д.] 1812: Уланская баллада (Олег Фесенко) [2012 г., приключения, BDRip] 90ytr90
2 | 0

0 | 416

10

15.01.2013 16:32

САШКА777 Пол:Муж

21-Янв-2013 10:57

Раздача будет?!

Яндекс.Метрика powered by Sphinx


В Н И М А Н И Е
Сайт не распространяет и не хранит электронные версии произведений, а лишь бесплатно и без коммерческой выгоды (не требуя взамен платы,
SMS и т.д.) предоставляет доступ к создаваемому пользователями каталогу ссылок на торрент-файлы, которые содержат только списки хеш-сумм.
Убедительная просьба с жалобами обращаться напрямую к пользователю, разместившему торрент файл.

Вверх