Loading...
Error

Самый страшный фильм 3D / Dead Before Dawn 3D (Эйприл Маллен ) [2012 г., Ужасы, комедия, приключения , DVDRip-AVC] Dub

Статистика раздачи
Размер:  1,46 GB   |    Зарегистрирован:  3 года 10 месяцев   |    Скачан:  21 раз

Полного источника не было: 1 год 7 месяцев

Сидов:  0  |  0 KB/s  ]   Личеров:  0  |  0 KB/s  ]

* - сиды/пиры с внешних источников

   
 
Автор Сообщение

Чертёнок Пол:Муж

17-Янв-2013 09:48

Самый страшный фильм 3D / Dead Before Dawn 3D


Год выпуска: 2012
Жанр: Ужасы, комедия, приключения
Страна: Канада
Режиссер: Эйприл Маллен
В ролях: Девон Бостик, Кристофер Ллойд, Марта МакАйсак, Брэндон Джей МакЛарен, Бриттани Аллен, Эйприл Маллен, Тим Дойрон, Кевин МакДональд, Эллен Дубин, Кайл Шмид
Сюжет фильма:
Комедийная пародия на фильмы о зомби. Оставшись за главного в лавке древностей, принадлежащей его деду, Каспер, и его друзья по колледжу, случайно разбивают старинный артефакт и обрушивают себе на голову древнее проклятье. Теперь, стоит им только взглянуть на кого-нибудь, как тот убивает себя, а потом воскресает зомбаком! Пока друзья разбирались в чем тут дело, половина города успела превратится в зомби. Зомбаками стали даже ребята из сборной колледжа по футболу и девчонки из группы поддержки. Теперь друзьям необходимо срочно найти способ снять проклятье. Это будет нелегко, но зато очень круто и дико смешно!

Качество видео: DVDRip-AVC

Продолжительность: 01:24:44
Формат: MKV
Видео: MPEG-4 AVC, 1024x576 , 2015 kbps
Аудио: русский, дублированный [лицензия], AC3 5.1, 448kbps

Код:

Общее
Уникальный идентификатор : 190173117836811971811138867390672954327 (0x8F12029E2ACD3D7A9A078F32919E63D7)
Полное имя : Samyj.strashnyj.film.3D.2012.Dx264.DVDRip-MysTeRy.mkv
Формат : Matroska
Версия формата : Version 4 / Version 2
Размер файла : 1,46 Гбайт
Продолжительность : 1 ч. 24 м.
Общий поток : 2465 Кбит/сек
Название фильма : Самый страшный фильм 3D
Дата кодирования : UTC 2010-02-22 21:41:31
Программа кодирования : mkvmerge v5.9.0 ('On The Loose') built on Dec 9 2012 15:37:01
Библиотека кодирования : libebml v1.3.0 + libmatroska v1.4.0

Видео
Идентификатор : 1
Формат : AVC
Формат/Информация : Advanced Video Codec
Профиль формата : High@L4.1
Параметр CABAC формата : Да
Параметр ReFrames формата : 11 кадров
Идентификатор кодека : V_MPEG4/ISO/AVC
Продолжительность : 1 ч. 24 м.
Битрейт : 2015 Кбит/сек
Ширина : 720 пикселей
Высота : 576 пикселей
Соотношение сторон : 16:9
Частота кадров : 25,000 кадров/сек
Стандарт вещания : PAL
Цветовое пространство : YUV
Субдискретизация насыщенности : 4:2:0
Битовая глубина : 8 бит
Тип развёртки : Прогрессивная
Бит/(Пиксели*Кадры) : 0.194
Размер потока : 1,16 Гбайт (80%)
Заголовок : ENCODER........: MysTeRy
Библиотека кодирования : x264 core 125 r2208 d9d2288
Настройки программы : cabac=1 / ref=11 / deblock=1:-2:-2 / analyse=0x3:0x113 / me=umh / subme=10 / psy=1 / psy_rd=1.00:0.10 / mixed_ref=1 / me_range=32 / chroma_me=1 / trellis=2 / 8x8dct=1 / cqm=0 / deadzone=21,11 / fast_pskip=1 / chroma_qp_offset=-3 / threads=12 / lookahead_threads=2 / sliced_threads=0 / nr=0 / decimate=1 / interlaced=0 / bluray_compat=0 / constrained_intra=0 / bframes=8 / b_pyramid=2 / b_adapt=2 / b_bias=0 / direct=3 / weightb=1 / open_gop=0 / weightp=2 / keyint=250 / keyint_min=25 / scenecut=40 / intra_refresh=0 / rc_lookahead=40 / rc=2pass / mbtree=0 / bitrate=2015 / ratetol=1.0 / qcomp=0.70 / qpmin=10 / qpmax=69 / qpstep=4 / cplxblur=20.0 / qblur=0.5 / vbv_maxrate=50000 / vbv_bufsize=61400 / nal_hrd=none / ip_ratio=1.40 / pb_ratio=1.30 / aq=1:1.00
Язык : English
Default : Да
Forced : Нет
Основные цвета : BT.709-5, BT.1361, IEC 61966-2-4, SMPTE RP177
Характеристики трансфера : BT.709-5, BT.1361
Коэффициенты матрицы : BT.709-5, BT.1361, IEC 61966-2-4 709, SMPTE RP177

Аудио
Идентификатор : 2
Формат : AC-3
Формат/Информация : Audio Coding 3
Расширение режима : CM (complete main)
Идентификатор кодека : A_AC3
Продолжительность : 1 ч. 24 м.
Вид битрейта : Постоянный
Битрейт : 448 Кбит/сек
Каналы : 6 каналов
Расположение каналов : Front: L C R, Side: L R, LFE
Частота : 48,0 КГц
Битовая глубина : 16 бит
Метод сжатия : С потерями
Размер потока : 272 Мбайт (18%)
Заголовок : Dub
Язык : Russian
Default : Да
Forced : Нет

Меню
00:00:00.000 : en:Chapter 1
00:03:08.887 : en:Chapter 2
00:07:20.017 : en:Chapter 3
00:11:47.441 : en:Chapter 4
00:17:03.275 : en:Chapter 5
00:22:19.920 : en:Chapter 6
00:27:56.756 : en:Chapter 7
00:32:27.039 : en:Chapter 8
00:38:50.626 : en:Chapter 9
00:44:53.900 : en:Chapter 10
00:51:27.710 : en:Chapter 11
01:00:53.570 : en:Chapter 12
01:07:24.311 : en:Chapter 13
01:12:14.787 : en:Chapter 14
01:20:12.644 : en:Chapter 15
Релиз группы:






Этот торрент недоступен для скачивания без регистрации, однако доступен по публичной magnet-ссылке (источники с публичных трекеров). Перед использованием ссылки прочтите, пожалуйста Пользовательское соглашение, а также как можно дольше оставайтесь на раздаче! Для того, чтобы скачать сам торрент-файл (который видит больше источников), а также для того, чтобы поблагодарить релизера, вам необходимо зарегистрироваться. Если регистрироваться лень - вы можете также попробовать скачать релиз по нашим партнерским ссылкам ниже.

[underverse.su].t23369.torrent
Трекер: Зарегистрирован   [ 17.01.2013 09:48 ]  

Статус: проверено (by Чертёнок at 17.01.2013 09:48)
Поблагодарили: пока никто не поблагодарил...
Тип торрента: публичный - доступные источники с открытых трекеров: 
Размер: 1,46 GB (занимает 1/3 DVDR, для записи нужно 1 болванка DVDR/RW)
 
 
Похожие темы
Форум Тема Автор Торрент Отв. Посл. сооб.
Зарубежное кино [DVDRip, Low-Res HDRip, и т.д.] Самый страшный фильм 3D / Dead Before Dawn 3D (Эйприл Маллен) [2012 г., ужасы, комедия, приключения, WEB-DLRip] Dub 90ytr90
24 | 2

0 | 372

15

24.12.2012 20:07

Зарубежное кино [DVDRip, Low-Res HDRip, и т.д.] Самый страшный фильм 3D / Dead Before Dawn 3D (Эйприл Маллен) [2012 г., ужасы, комедия, приключения, WEB-DLRip] Dub 90ytr90
3 | 0

0 | 615

7

25.12.2012 05:14

Зарубежное кино [DVDRip, Low-Res HDRip, и т.д.] Самый страшный фильм 3D / Dead Before Dawn 3D (Эйприл Маллен) [2012 г., ужасы, комедия, приключения, DVDRip] Dub 90ytr90
81 | 2

0 | 702

61

25.12.2012 21:12

Зарубежное кино [DVDRip, Low-Res HDRip, и т.д.] Самый страшный фильм 3D / Dead Before Dawn 3D (Эйприл Маллен) [2012 г., ужасы, комедия, приключения, HDRip] Dub 90ytr90
3 | 0

0 | 874

24

05.04.2013 18:27

Зарубежное кино [DVDRip, Low-Res HDRip, и т.д.] Самый страшный фильм / Dead Before Dawn (Эйприл Маллен) [2012 г., Ужасы, комедия, приключения, BDRip-AVC] Dub + Original Чертёнок
78 | 8

0 | 954

18

17.04.2013 17:04


Яндекс.Метрика powered by Sphinx


В Н И М А Н И Е
Сайт не распространяет и не хранит электронные версии произведений, а лишь бесплатно и без коммерческой выгоды (не требуя взамен платы,
SMS и т.д.) предоставляет доступ к создаваемому пользователями каталогу ссылок на торрент-файлы, которые содержат только списки хеш-сумм.
Убедительная просьба с жалобами обращаться напрямую к пользователю, разместившему торрент файл.

Вверх