Loading...
Error

Блудливая Калифорния / Californication / Сезон: 6 / Серии: 1-12 (Том Капинос) [2013 г., драма, комедия, HDTVRip] MVO + Original

Статистика раздачи
Размер:  3,51 GB   |    Зарегистрирован:  3 года 1 месяц   |    Скачан:  9 раз

Полного источника не было: 10 дней

Сидов:  0  |  0 KB/s  ]   Личеров:  0  |  0 KB/s  ]

* - сиды/пиры с внешних источников

   
 
Автор Сообщение

garry Пол:Муж

16-Янв-2013 22:15

Блудливая Калифорния / Californication


Год выпуска: 2013
Жанр: драма, комедия
Страна: США
Режиссер: Том Капинос
В ролях: Дэвид Духовны, Наташа МакЭлхоун, Мадлен Мартин, Эван Хэндлер, Памела Адлон, Мадлен Зима, Стивен Тоболовски, Каллум Кит Ренни, Рэйчел Майнер, Джейсон Бех
Сюжет фильма:
Известный писатель Хэнк Муди переживает творческий и личностный кризис. За пять лет он не написал ни строчки, лишился женщины, которую любил, и окончательно погряз в пороках: марихуане, алкоголе и связях-однодневках. Но он не теряет надежды вновь обрести потерянную семью и вернуться к творчеству.

Качество видео: HDTVRip

Продолжительность: ~00:30:00
Формат: AVI
Видео: XviD, 720x400, 1041 kbps
Аудио #1: русский, многоголосый закадровый [профессиональный], AC3 2.0, 192 kbps
Аудио #2: английский, оригинал, AC3 2.0, 192 kbps

Код:

General
Complete name                            : D:\Video\Serials\Californication - Season 6 (NovaFilm)\californication.s06e01.hdtv.rus.eng.*другой трекер*.avi
Format                                   : AVI
Format/Info                              : Audio Video Interleave
File size                                : 300 MiB
Duration                                 : 29mn 7s
Overall bit rate                         : 1 439 Kbps
Writing application                      : VirtualDubMod 1.5.10.2 (build 2542/release)
Writing library                          : VirtualDubMod build 2542/release

Video
ID                                       : 0
Format                                   : MPEG-4 Visual
Format profile                           : Advanced Simple@L5
Format settings, BVOP                    : 2
Format settings, QPel                    : No
Format settings, GMC                     : No warppoints
Format settings, Matrix                  : Default (H.263)
Muxing mode                              : Packed bitstream
Codec ID                                 : XVID
Codec ID/Hint                            : XviD
Duration                                 : 29mn 7s
Bit rate                                 : 1 041 Kbps
Width                                    : 720 pixels
Height                                   : 400 pixels
Display aspect ratio                     : 16:9
Frame rate                               : 23.976 fps
Color space                              : YUV
Chroma subsampling                       : 4:2:0
Bit depth                                : 8 bits
Scan type                                : Progressive
Compression mode                         : Lossy
Bits/(Pixel*Frame)                       : 0.151
Stream size                              : 217 MiB (72%)
Writing library                          : XviD 64

Audio #1
ID                                       : 1
Format                                   : AC-3
Format/Info                              : Audio Coding 3
Mode extension                           : CM (complete main)
Format settings, Endianness              : Big
Codec ID                                 : 2000
Duration                                 : 29mn 6s
Bit rate mode                            : Constant
Bit rate                                 : 192 Kbps
Channel(s)                               : 2 channels
Channel positions                        : Front: L R
Sampling rate                            : 48.0 KHz
Bit depth                                : 16 bits
Compression mode                         : Lossy
Stream size                              : 40.0 MiB (13%)
Alignment                                : Split accross interleaves
Interleave, duration                     : 42 ms (1.00 video frame)
Interleave, preload duration             : 500 ms

Audio #2
ID                                       : 2
Format                                   : AC-3
Format/Info                              : Audio Coding 3
Mode extension                           : CM (complete main)
Format settings, Endianness              : Big
Codec ID                                 : 2000
Duration                                 : 29mn 6s
Bit rate mode                            : Constant
Bit rate                                 : 192 Kbps
Channel(s)                               : 2 channels
Channel positions                        : Front: L R
Sampling rate                            : 48.0 KHz
Bit depth                                : 16 bits
Compression mode                         : Lossy
Stream size                              : 40.0 MiB (13%)
Alignment                                : Split accross interleaves
Interleave, duration                     : 42 ms (1.00 video frame)
Interleave, preload duration             : 500 ms
Семпл: http://multi-up.com/817764

Релиз группы:

picpicpic
Для увеличения картинки щелкните мышкой по превью
42 ms

Этот торрент недоступен для скачивания без регистрации, однако доступен по публичной magnet-ссылке (источники с публичных трекеров). Перед использованием ссылки прочтите, пожалуйста Пользовательское соглашение, а также как можно дольше оставайтесь на раздаче! Для того, чтобы скачать сам торрент-файл (который видит больше источников), а также для того, чтобы поблагодарить релизера, вам необходимо зарегистрироваться. Если регистрироваться лень - вы можете также попробовать скачать релиз по нашим партнерским ссылкам ниже.

[underverse.su].t23363.torrent
Трекер: Зарегистрирован   [ 20.10.2013 10:23 ]  

Статус: проверено (by garry at 20.10.2013 10:23)
Поблагодарили: 2 человека
Тип торрента: публичный - доступные источники с открытых трекеров: 
Размер: 3,51 GB (занимает 0,8 DVDR, для записи нужно 1 болванка DVDR/RW)
 
 
Похожие темы
Форум Тема Автор Торрент Отв. Посл. сооб.
Зарубежные сериалы Блудливая Калифорния / Californication / Сезон: 1, серии: 1-12 (Дэвид Фон Энкен, Стивен Хопкинс, Кен Уиттингэм) [2007 г., драма, комедия, WEBDLRip] VO garry
2 | 1

0 | 1052

20

19.10.2012 21:18

Зарубежные сериалы Блудливая Калифорния / Californication / Сезон: 2, серии: 1-12 (Дэвид Духовны, Дэвид Фон Энкен, Майкл Леманн) [2008 г., драма, комедия, WEBDLRip] MVO garry
58 | 4

0 | 1151

19

19.10.2012 21:29

Зарубежные сериалы Блудливая Калифорния / Californication / Сезон: 3, серии: 1-12 (Дэвид Фон Энкен, Барт Фрейндлих, Джон Дал) [2009 г., драма, комедия, WEBDLRip] MVO garry
51 | 2

0 | 1084

15

19.10.2012 21:37

Зарубежные сериалы Блудливая Калифорния / Californication / Сезон: 4, серии: 1-12 (Адам Бернштейн, Джон Дал, Дэвид Фон Энкен) [2011 г., драма, комедия, WEBDLRip] MVO garry
63 | 3

0 | 1096

10

19.10.2012 21:45

Зарубежные сериалы Блудливая Калифорния / Californication / Сезон: 5, серии: 1-12 (Барт Фрейндлих, Адам Бернштейн, Джон Дал) [2012 г., драма, комедия, HDTVRip/WEBDLRip] MVO garry
43 | 6

1 | 1627

10

17.12.2012 00:36



Последний раз редактировалось: garry (20.10.2013 10:32), всего редактировалось 9 раз(а)

garry Пол:Муж

02-Мар-2013 14:34

добавлена 6 серия

aizverg 

08-Мар-2013 03:22

Отличный сериал!

garry Пол:Муж

19-Мар-2013 17:26

добавлена 8 и 9 серия

garry Пол:Муж

20-Окт-2013 10:23

весь сезон.

Яндекс.Метрика powered by Sphinx


В Н И М А Н И Е
Сайт не распространяет и не хранит электронные версии произведений, а лишь бесплатно и без коммерческой выгоды (не требуя взамен платы,
SMS и т.д.) предоставляет доступ к создаваемому пользователями каталогу ссылок на торрент-файлы, которые содержат только списки хеш-сумм.
Убедительная просьба с жалобами обращаться напрямую к пользователю, разместившему торрент файл.

Вверх