Loading...
Error

Наркомовский обоз (1-4 серии) (Влад Фурман ) [2011 г., Военный фильм, драма, DVDRip-AVC] Original

Статистика раздачи
Размер:  2,14 GB   |    Зарегистрирован:  3 года 10 месяцев   |    Скачан:  14 раз

Полного источника не было: 3 часа

Сидов:  0  |  0 KB/s  ]   Личеров:  0  |  0 KB/s  ]

* - сиды/пиры с внешних источников

   
 
Автор Сообщение

Чертёнок Пол:Муж

16-Янв-2013 00:12

Наркомовский обоз


Год выпуска: 2011
Жанр: Военный фильм, драма
Страна: Россия
Режиссер: Влад Фурман
В ролях: Сергей Маховиков, Ольга Фадеева, Анна Арланова, Дарья Баранова, Юлия Полубинская, Ирина Рахманова, Анатолий Петров, Михаил Долгополов, Максим Селяво, Владислав Буланов, Ричард Бондарев, Виталий Котовицкий, Владимир Стеклов, Сергей Прокопич, Сергей Власов, Виктор Молчан, Кирилл Новицкий, Вячеслав Павлють
Сюжет фильма:
Действие сериала происходит в 1941 году. Только что Комитет Обороны принял постановление о водочном довольствии для действующей армии. Старшине Филиппову было дано задание: доставить в стрелковую дивизию те самые знаменитые «100 наркомовских грамм». В помощники ему отправляют 4 девушки, местного старика-проводника Архипа, его внука-подростка Митю и красноармейца. Погрузив на телеги тару, обоз отправляется в путь. За несколько дней этой рутинной тыловой поездки им предстоит пройти серьезные военные испытания: неоднократно вступить бой, стать свидетелями настоящей отваги и подлой трусости, познать любовь и ревность.


Качество видео: DVDRip-AVC

Продолжительность: 4 ~ 00:50:00
Формат: MKV
Видео: MPEG-4 AVC, 1024х576, 1444 kbps
Аудио: русский, оригинал, MP3 2.0, 192 kbps

Код:

Общее
Полное имя                               : Narkomovskij.oboz.2011Narkomovskij.oboz.2011.DVDRip-AVC3 серия.mkv
Формат                                   : Matroska
Версия формата                           : Version 2
Размер файла                             : 548 Мбайт
Продолжительность                        : 48 м.
Общий поток                              : 1572 Кбит/сек
Название фильма                          : Narkomovskij.oboz.2011.DVDRip-AVC AVP Studio
Дата кодирования                         : UTC 2012-04-29 13:36:15
Программа кодирования                    : mkvmerge v5.2.0 ('I can't explain') built on Dec 18 2011 18:12:03
Библиотека кодирования                   : libebml v1.2.3 + libmatroska v1.3.0

Видео
Идентификатор                            : 1
Формат                                   : AVC
Формат/Информация                        : Advanced Video Codec
Профиль формата                          : High@L3.1
Параметр CABAC формата                   : Да
Параметр ReFrames формата                : 8 кадров
Идентификатор кодека                     : V_MPEG4/ISO/AVC
Продолжительность                        : 48 м.
Битрейт                                  : 1444 Кбит/сек
Ширина                                   : 720 пикселей
Высота                                   : 576 пикселей
Соотношение сторон                       : 16:9
Частота кадров                           : 25,000 кадров/сек
Стандарт вещания                         : PAL
Цветовое пространство                    : YUV
Субдискретизация насыщенности            : 4:2:0
Битовая глубина                          : 8 бит
Тип развёртки                            : Прогрессивная
Бит/(Пиксели*Кадры)                      : 0.139
Размер потока                            : 493 Мбайт (90%)
Заголовок                                : Источник DVD
Библиотека кодирования                   : x264 core 115 r1937 aa21558
Настройки программы                      : cabac=1 / ref=10 / deblock=1:-2:-1 / analyse=0x3:0x133 / me=umh / subme=9 / psy=1 / psy_rd=1.00:0.10 / mixed_ref=1 / me_range=24 / chroma_me=1 / trellis=2 / 8x8dct=1 / cqm=0 / deadzone=21,11 / fast_pskip=1 / chroma_qp_offset=-3 / threads=6 / sliced_threads=0 / nr=0 / decimate=1 / interlaced=0 / bluray_compat=0 / constrained_intra=0 / bframes=6 / b_pyramid=2 / b_adapt=2 / b_bias=0 / direct=3 / weightb=1 / open_gop=0 / weightp=2 / keyint=250 / keyint_min=25 / scenecut=40 / intra_refresh=0 / rc=2pass / mbtree=0 / bitrate=1444 / ratetol=1.0 / qcomp=0.60 / qpmin=0 / qpmax=69 / qpstep=4 / cplxblur=20.0 / qblur=0.5 / ip_ratio=1.40 / pb_ratio=1.30 / aq=1:1.00
Язык                                     : Russian
Default                                  : Да
Forced                                   : Нет
Основные цвета                           : BT.709-5, BT.1361, IEC 61966-2-4, SMPTE RP177
Характеристики трансфера                 : BT.709-5, BT.1361
Коэффициенты матрицы                     : BT.709-5, BT.1361, IEC 61966-2-4 709, SMPTE RP177

Аудио
Идентификатор                            : 2
Формат                                   : MPEG Audio
Версия формата                           : Version 1
Профиль формата                          : Layer 3
Идентификатор кодека                     : A_MPEG/L3
Идентификатор кодека/Подсказка           : MP3
Продолжительность                        : 48 м.
Вид битрейта                             : Постоянный
Битрейт                                  : 128 Кбит/сек
Каналы                                   : 2 канала
Частота                                  : 48,0 КГц
Метод сжатия                             : С потерями
Размер потока                            : 44,6 Мбайт (8%)
Заголовок                                : Источник DVD
Библиотека кодирования                   : L3.99r
Настройки программы                      : -m s -V 4 -q 2 -lowpass 17 -b 128
Язык                                     : Russian
Default                                  : Да
Forced                                   : Нет
Релиз группы:







Этот торрент недоступен для скачивания без регистрации, однако доступен по публичной magnet-ссылке (источники с публичных трекеров). Перед использованием ссылки прочтите, пожалуйста Пользовательское соглашение, а также как можно дольше оставайтесь на раздаче! Для того, чтобы скачать сам торрент-файл (который видит больше источников), а также для того, чтобы поблагодарить релизера, вам необходимо зарегистрироваться. Если регистрироваться лень - вы можете также попробовать скачать релиз по нашим партнерским ссылкам ниже.

[underverse.su].t23341.torrent
Трекер: Зарегистрирован   [ 16.01.2013 00:12 ]  

Статус: проверено (by Чертёнок at 16.01.2013 00:12)
Поблагодарили: пока никто не поблагодарил...
Тип торрента: публичный - доступные источники с открытых трекеров: 
Размер: 2,14 GB (занимает 0,49 DVDR, для записи нужно 1 болванка DVDR/RW)
 
 

Яндекс.Метрика powered by Sphinx


В Н И М А Н И Е
Сайт не распространяет и не хранит электронные версии произведений, а лишь бесплатно и без коммерческой выгоды (не требуя взамен платы,
SMS и т.д.) предоставляет доступ к создаваемому пользователями каталогу ссылок на торрент-файлы, которые содержат только списки хеш-сумм.
Убедительная просьба с жалобами обращаться напрямую к пользователю, разместившему торрент файл.

Вверх