Loading...
Error

Ассасины / The Assassins / Tong que tai (Линьшань Чжао) [2012 г., драма, BDRip] VO HQ Underverse

Статистика раздачи
Размер:  1,45 GB   |    Зарегистрирован:  3 года 10 месяцев   |    Скачан:  40 раз
Сидов:  1  |  0 KB/s  ]   Личеров:  0  |  0 KB/s  ]

* - сиды/пиры с внешних источников

   
 
Автор Сообщение

HQ Underverse 

15-Янв-2013 15:46

Ассасины / The Assassins / Tong que tai


Год выпуска: 2012
Жанр: драма
Страна: Китай
Режиссер: Линьшань Чжао
В ролях: Чоу Юнь-Фат, Йифей Лью, Хироши Тамаки, Алек Су, Янь Ни, Рой Чунг, Дахон Ни, Не Юань, Яо Лу, Синь-Чжи Цю
Сюжет фильма:
Троецарствие — период истории Китая. В эту пору разворачиваются действия фильма. Главная фигура фильма — Цао Цао. Он уже стар, но все еще остается влиятельным человеком. Сын Цао Цао пытается занять место отца. Эта драматическая история — о военной тактике, верности и предательстве, где есть место любви и убийству.

  • Мировая премьера: 26 сентября 2012


Качество видео: BDRip

Продолжительность: 01:47:07
Формат: avi
Видео: XviD, 720x304, 1548 kbps
Аудио: русский, одноголосый закадровый [den904], AC3 5.1, 384 kbps

Код:

General
Complete name                    : D:\Video\Movies\Releases\The.Assassins.2012.BDRip.XviD.AC3.Rus.VO.HQ.Underverse.avi
Format                           : AVI
Format/Info                      : Audio Video Interleave
File size                        : 1.45 GiB
Duration                         : 1h 47mn
Overall bit rate                 : 1 942 Kbps
Writing application              : VirtualDubMod 1.5.10.2 (build 2540/release)
Writing library                  : VirtualDubMod build 2540/release

Video
ID                               : 0
Format                           : MPEG-4 Visual
Format profile                   : Streaming Video@L1
Format settings, BVOP            : Yes
Format settings, QPel            : No
Format settings, GMC             : No warppoints
Format settings, Matrix          : Custom
Muxing mode                      : Packed bitstream
Codec ID                         : XVID
Codec ID/Hint                    : XviD
Duration                         : 1h 47mn
Bit rate                         : 1 549 Kbps
Width                            : 720 pixels
Height                           : 304 pixels
Display aspect ratio             : 2.35
Frame rate                       : 24.000 fps
Resolution                       : 24 bits
Colorimetry                      : 4:2:0
Scan type                        : Progressive
Bits/(Pixel*Frame)               : 0.295
Stream size                      : 1.16 GiB (80%)
Writing library                  : XviD 64

Audio
ID                               : 1
Format                           : AC-3
Format/Info                      : Audio Coding 3
Codec ID                         : 2000
Duration                         : 1h 47mn
Bit rate mode                    : Constant
Bit rate                         : 384 Kbps
Channel(s)                       : 6 channels
Channel positions                : Front: L C R, Surround: L R, LFE
Sampling rate                    : 48.0 KHz
Stream size                      : 294 MiB (20%)
Alignment                        : Split accross interleaves
Interleave, duration             : 42 ms (1.00 video frame)
Interleave, preload duration     : 500 ms

Семпл: http://multi-up.com/817173

Релиз группы:

picpicpic
Для увеличения картинки щелкните мышкой по превью

Этот торрент недоступен для скачивания без регистрации, однако доступен по публичной magnet-ссылке (источники с публичных трекеров). Перед использованием ссылки прочтите, пожалуйста Пользовательское соглашение, а также как можно дольше оставайтесь на раздаче! Для того, чтобы скачать сам торрент-файл (который видит больше источников), а также для того, чтобы поблагодарить релизера, вам необходимо зарегистрироваться. Если регистрироваться лень - вы можете также попробовать скачать релиз по нашим партнерским ссылкам ниже.

[underverse.su].t23327.torrent
Трекер: Зарегистрирован   [ 15.01.2013 15:46 ]  

Статус: проверено (by garry at 15.01.2013 16:04)
Поблагодарили: 6 человек
Тип торрента: публичный - доступные источники с открытых трекеров: 
Размер: 1,45 GB (занимает 1/3 DVDR, для записи нужно 1 болванка DVDR/RW)
 
 
Похожие темы
Форум Тема Автор Торрент Отв. Посл. сооб.
Зарубежное кино [DVDRip, Low-Res HDRip, и т.д.] Ассасины / Убийцы / Tong que tai / The Assassins (Чжао Линшан) [2012 г., исторический, драма, HDRip] VO (den904) 90ytr90
15 | 2

0 | 1578

64

10.01.2013 15:14

Зарубежное кино [DVDRip, Low-Res HDRip, и т.д.] Ассасины / Убийцы / Tong que tai / The Assassins (Чжао Линшан) [2012 г., исторический, драма, HDRip] DVO (den904, DeadSno) 90ytr90
2 | 0

0 | 1097

17

18.01.2013 17:07


Яндекс.Метрика powered by Sphinx


В Н И М А Н И Е
Сайт не распространяет и не хранит электронные версии произведений, а лишь бесплатно и без коммерческой выгоды (не требуя взамен платы,
SMS и т.д.) предоставляет доступ к создаваемому пользователями каталогу ссылок на торрент-файлы, которые содержат только списки хеш-сумм.
Убедительная просьба с жалобами обращаться напрямую к пользователю, разместившему торрент файл.

Вверх