Loading...
Error

Мент в законе 6 / Серии: 1-24 (24) (Сергей Полянский, Евгений Сологалов) [2012, Криминал, боевик, детектив, SATRip]

Статистика раздачи
Размер:  16,01 GB   |    Зарегистрирован:  3 года 10 месяцев   |    Скачан:  7 раз

Полного источника не было: 3 месяца 12 дней

Сидов:  0  |  0 KB/s  ]   Личеров:  0  |  0 KB/s  ]

* - сиды/пиры с внешних источников

   
 
Автор Сообщение

nemos Пол:Муж

14-Янв-2013 17:42

Мент в законе 6


Год выпуска: 2013
Жанр: детектив
Страна: Россия
Режиссер: Сергей Полянский, Евгений Сологалов
В ролях: Сергей Плотников, Антон Сёмкин, Михаил Бабичев, Константин Глушков, Юлия Яблонская, Денис Кирис, Константин Гацалов, Дарья Русакова, Роман Селецкий, Тарас Кияшко
Сюжет фильма:
В шестом сезоне в Битово происходит громкое экономическое преступление: заезжих бизнесменов «кинули» на 100 миллионов рублей. Дерзкого афериста разыскивают оперативники Кручи, бандиты Сафрона и сами «бизнесмены», оказавшиеся членами организованной преступной группировки. Также в этом сезоне Сафрон баллотируется в депутаты под лозунгом: «Я освобожу район Битово от преступности и от бездействия полиции». Борьба Кручи против преступности обостряется: масштабные грабежи и циничные убийства, борьба с работорговцами и квартирными аферистами, арест банды подростков из богатых семей, которые играют в карты человеческие жизни. Все это и многое другое с блеском расследуют Степан Круча и его оперативники в новом сезоне остросюжетного телесериала.


Качество видео: SatRip

Продолжительность: 24x ~ 00:45:26
Формат: AVI
Видео: XviD, 720x384, 1650 kbps
Аудио: русский, MP3 2.0, 192 kbps

Код:

F:\СКАЧКИ\С underverse\Ment.v.zakone.(6.sezon).2012.SATRip.GeneralFilm\Ment.v.zakone.6.(02.seriya).2012.XviD.SATRip.GeneralFilm.avi
   General
      Complete name : F:\СКАЧКИ\С underverse\Ment.v.zakone.(6.sezon).2012.SATRip.GeneralFilm\Ment.v.zakone.6.(02.seriya).2012.XviD.SATRip.GeneralFilm.avi
      Format : AVI
      Format/Info : Audio Video Interleave
      File size : 601 MiB
      Duration : 45mn 26s
      Overall bit rate : 1 849 Kbps
      Writing application : VirtualDubMod 1.5.10.3 | www.virtualdub-fr.org || (build 2550/release)
      Writing library : Boilsoft AVI tool build 1/release
   Video #0
      ID : 0
      Format : MPEG-4 Visual
      Format profile : Advanced Simple@L5
      Format settings, BVOP : 2
      Format settings, QPel : No
      Format settings, GMC : No warppoints
      Format settings, Matrix : Custom
      Codec ID : XVID
      Codec ID/Hint : XviD
      Duration : 45mn 26s
      Bit rate : 1 647 Kbps
      Width : 720 pixels
      Height : 384 pixels
      Display aspect ratio : 1.85:1
      Frame rate : 25.000 fps
      Color space : YUV
      Chroma subsampling : 4:2:0
      Bit depth : 8 bits
      Scan type : Progressive
      Compression mode : Lossy
      Bits/(Pixel*Frame) : 0.238
      Stream size : 535 MiB (89%)
      Writing library : XviD 1.2.1 (UTC 2008-12-04)
   Audio #1
      ID : 1
      Format : MPEG Audio
      Format version : Version 1
      Format profile : Layer 3
      Mode : Joint stereo
      Mode extension : MS Stereo
      Codec ID : 55
      Codec ID/Hint : MP3
      Duration : 45mn 26s
      Bit rate mode : Constant
      Bit rate : 192 Kbps
      Channel(s) : 2 channels
      Sampling rate : 48.0 KHz
      Compression mode : Lossy
      Stream size : 62.4 MiB (10%)
      Alignment : Aligned on interleaves
      Interleave, duration : 40 ms (1.00 video frame)
      Interleave, preload duration : 504 ms
      Writing library : LAME3.98r
      Encoding settings : -m j -V 4 -q 2 -lowpass 18.6 -b 192
Семпл: http://multi-up.com/816793

picpicpicpicpicpicpicpic
Для увеличения картинки щелкните мышкой по превью
Сериал который был выложен и зарегистрирован более двух месяцев назад буду раздавать с 23.00ч до 06.00ч утра ( вина в этом немоя, а пользователей которые неподдерживают раздачу)

Этот торрент недоступен для скачивания без регистрации, однако доступен по публичной magnet-ссылке (источники с публичных трекеров). Перед использованием ссылки прочтите, пожалуйста Пользовательское соглашение, а также как можно дольше оставайтесь на раздаче! Для того, чтобы скачать сам торрент-файл (который видит больше источников), а также для того, чтобы поблагодарить релизера, вам необходимо зарегистрироваться. Если регистрироваться лень - вы можете также попробовать скачать релиз по нашим партнерским ссылкам ниже.

[underverse.su].t23559.torrent
Трекер: Зарегистрирован   [ 02.02.2013 23:28 ]  

Статус: проверено (by Чертёнок at 02.02.2013 23:29)
Поблагодарили: пока никто не поблагодарил...
Тип торрента: публичный - доступные источники с открытых трекеров: 
Размер: 16,01 GB (занимает 3,66 DVDR, для записи нужно 4 болванки DVDR/RW)
 
 
Похожие темы
Форум Тема Автор Торрент Отв. Посл. сооб.
xUSSR сериалы Мент в законе (7 сезон: 1-16 серии из 16) (Дмитрий Матов, Евгений Сологалов) [2013 г., Детектив, криминал, SatRip] nemos
0 | 0

0 | 660

6

17.08.2014 19:30

xUSSR сериалы Мент в законе (8 сезон: 1-24 серии из 24) (Юрий Попович, Игорь Ромащенко, Давид Ройтберг) [2014 г., детектив, криминальный, SatRip] nemos
0 | 0

1 | 1698

5

24.08.2014 20:24



Последний раз редактировалось: nemos (06.11.2014 12:31), всего редактировалось 5 раз(а)

nemos Пол:Муж

20-Янв-2013 17:16

Торент обновлен(10)

nemos Пол:Муж

21-Янв-2013 19:46

Торент обновлен(13)

Чертёнок Пол:Муж

28-Янв-2013 14:41

Обновил до 20 серии.

Яндекс.Метрика powered by Sphinx


В Н И М А Н И Е
Сайт не распространяет и не хранит электронные версии произведений, а лишь бесплатно и без коммерческой выгоды (не требуя взамен платы,
SMS и т.д.) предоставляет доступ к создаваемому пользователями каталогу ссылок на торрент-файлы, которые содержат только списки хеш-сумм.
Убедительная просьба с жалобами обращаться напрямую к пользователю, разместившему торрент файл.

Вверх